[ create a new paste ] login | about

Link: http://codepad.org/KK9Ppv4F    [ raw code | fork ]

Plain Text, pasted on Oct 16:
Exact Audio Copy V1.0 beta 4 from 7. December 2014

EAC extraction logfile from 20. March 2015, 11:22

Rick Wakeman / The Six Wives of Henry VIII (2014, Deluxe Edition CD+DVD, 5356238)

Used drive : ATAPI iHAS124 B Adapter: 1 ID: 0

Read mode : Secure
Utilize accurate stream : Yes
Defeat audio cache : Yes
Make use of C2 pointers : No

Read offset correction : 6
Overread into Lead-In and Lead-Out : No
Fill up missing offset samples with silence : Yes
Delete leading and trailing silent blocks : No
Null samples used in CRC calculations : Yes
Used interface : Installed external ASPI interface

Used output format : User Defined Encoder
Selected bitrate : 128 kBit/s
Quality : High
Add ID3 tag : Yes
Command line compressor : C:\Program Files (x86)\Exact Audio Copy\Flac\flac.exe
Additional command line options : -V -8 -T “Date=%year%” -T “Genre=%genre%” %source%

TOC of the extracted CD

Track | Start | Length | Start sector | End sector
———————————————————
1 | 0:00.00 | 3:49.11 | 0 | 17185
2 | 3:49.11 | 7:52.56 | 17186 | 52641
3 | 11:41.67 | 6:38.06 | 52642 | 82497
4 | 18:19.73 | 4:49.62 | 82498 | 104234
5 | 23:09.60 | 6:36.02 | 104235 | 133936
6 | 29:45.62 | 7:08.62 | 133937 | 166098
7 | 36:54.49 | 3:48.07 | 166099 | 183205
8 | 40:42.56 | 3:13.12 | 183206 | 197692
9 | 43:55.68 | 3:41.01 | 197693 | 214268

Range status and errors

Selected range

Filename G:\CD\Rick Wakeman – The Six Wives of Henry VIII.wav

Peak level 97.9 %
Extraction speed 5.6 X
Range quality 100.0 %
Test CRC B6272154
Copy CRC B6272154
Copy OK

No errors occurred

AccurateRip summary

Track 1 accurately ripped (confidence 3) [DC8034B0] (AR v2)
Track 2 accurately ripped (confidence 3) [C90CBF21] (AR v2)
Track 3 accurately ripped (confidence 3) [A3ED6110] (AR v2)
Track 4 accurately ripped (confidence 3) [37D0C205] (AR v2)
Track 5 accurately ripped (confidence 3) [CFBF7C13] (AR v2)
Track 6 accurately ripped (confidence 3) [45165669] (AR v2)
Track 7 accurately ripped (confidence 3) [4EFB6AF4] (AR v2)
Track 8 accurately ripped (confidence 3) [FCEFC03A] (AR v2)
Track 9 accurately ripped (confidence 3) [3CE776DA] (AR v2)

All tracks accurately ripped

End of status report

—- CUETools DB Plugin V2.1.4

[CTDB TOCID: PUfSjlt4ytNOT7_tlVecPY.svJQ-] found
Submit result: PUfSjlt4ytNOT7_tlVecPY.svJQ- has been confirmed
Track | CTDB Status
1 | (3/3) Accurately ripped
2 | (3/3) Accurately ripped
3 | (3/3) Accurately ripped
4 | (3/3) Accurately ripped
5 | (3/3) Accurately ripped
6 | (3/3) Accurately ripped
7 | (3/3) Accurately ripped
8 | (3/3) Accurately ripped
9 | (3/3) Accurately ripped

==== Log checksum 5B05BC7506BA84941977E6C0E089852F25AE99D8C08E0CB083B43C42BBD71689 ====


Create a new paste based on this one


Comments: