[ create a new paste ] login | about

Link: http://codepad.org/KKwE9vj4    [ raw code | fork ]

Plain Text, pasted on Jun 13:
Exact Audio Copy V1.0 beta 2 from 29. April 2011

EAC extraction logfile from 2. July 2011, 23:14

The Jackson 5 / Diana Ross Presents The Jackson 5 / ABC

Used drive  : HL-DT-STDVDRAM GSA-H60N   Adapter: 2  ID: 0

Read mode               : Secure
Utilize accurate stream : Yes
Defeat audio cache      : Yes
Make use of C2 pointers : No

Read offset correction                      : 667
Overread into Lead-In and Lead-Out          : No
Fill up missing offset samples with silence : Yes
Delete leading and trailing silent blocks   : No
Null samples used in CRC calculations       : Yes
Used interface                              : Native Win32 interface for Win NT & 2000

Used output format : Internal WAV Routines
Sample format      : 44.100 Hz; 16 Bit; Stereo


TOC of the extracted CD

     Track |   Start  |  Length  | Start sector | End sector 
    ---------------------------------------------------------
        1  |  0:00.00 |  3:17.62 |         0    |    14836   
        2  |  3:17.62 |  2:53.28 |     14837    |    27839   
        3  |  6:11.15 |  3:03.60 |     27840    |    41624   
        4  |  9:15.00 |  3:10.32 |     41625    |    55906   
        5  | 12:25.32 |  4:05.03 |     55907    |    74284   
        6  | 16:30.35 |  3:16.02 |     74285    |    88986   
        7  | 19:46.37 |  3:44.05 |     88987    |   105791   
        8  | 23:30.42 |  4:05.28 |    105792    |   124194   
        9  | 27:35.70 |  2:54.22 |    124195    |   137266   
       10  | 30:30.17 |  2:16.40 |    137267    |   147506   
       11  | 32:46.57 |  2:38.00 |    147507    |   159356   
       12  | 35:24.57 |  2:30.63 |    159357    |   170669   
       13  | 37:55.45 |  3:01.30 |    170670    |   184274   
       14  | 40:57.00 |  2:59.02 |    184275    |   197701   
       15  | 43:56.02 |  2:57.28 |    197702    |   211004   
       16  | 46:53.30 |  2:57.40 |    211005    |   224319   
       17  | 49:50.70 |  2:43.05 |    224320    |   236549   
       18  | 52:34.00 |  3:49.02 |    236550    |   253726   
       19  | 56:23.02 |  3:00.53 |    253727    |   267279   
       20  | 59:23.55 |  3:27.10 |    267280    |   282814   
       21  | 62:50.65 |  3:30.35 |    282815    |   298599   
       22  | 66:21.25 |  3:18.40 |    298600    |   313489   
       23  | 69:39.65 |  3:00.00 |    313490    |   326989   
       24  | 72:39.65 |  2:53.02 |    326990    |   339966   
       25  | 75:32.67 |  2:50.18 |    339967    |   352734   


Range status and errors

Selected range

     Filename C:\Documents and Settings\2011 Dear Michael 12 SHM-CD\Disc 4 Diana Ross Presents The Jackson 5 - ABC\Diana Ross Presents - ABC.wav

     Peak level 100.0 %
     Extraction speed 6.2 X
     Range quality 99.9 %
     Test CRC 4C46A838
     Copy CRC 4C46A838
     Copy OK

No errors occurred

 
AccurateRip summary
 
Track  1  cannot be verified as accurate (confidence 13)  [1CC57317], AccurateRip returned [833C75F1]  (AR v2)
Track  2  cannot be verified as accurate (confidence 13)  [FE162674], AccurateRip returned [74D95A70]  (AR v2)
Track  3  cannot be verified as accurate (confidence 13)  [F25CCA5D], AccurateRip returned [F683A9A2]  (AR v2)
Track  4  cannot be verified as accurate (confidence 13)  [938B07AB], AccurateRip returned [C8D84BE8]  (AR v2)
Track  5  cannot be verified as accurate (confidence 13)  [FD4D6336], AccurateRip returned [31AB49E8]  (AR v2)
Track  6  cannot be verified as accurate (confidence 13)  [6C931C17], AccurateRip returned [EB286A85]  (AR v2)
Track  7  cannot be verified as accurate (confidence 13)  [7EA84DEF], AccurateRip returned [9D0747CF]  (AR v2)
Track  8  cannot be verified as accurate (confidence 13)  [C0BD2FB9], AccurateRip returned [7FF74E12]  (AR v2)
Track  9  cannot be verified as accurate (confidence 13)  [647F915D], AccurateRip returned [5257BD3B]  (AR v2)
Track 10  cannot be verified as accurate (confidence 13)  [B2402593], AccurateRip returned [9B0D2E0C]  (AR v2)
Track 11  cannot be verified as accurate (confidence 13)  [1AB4B42A], AccurateRip returned [EA78DA31]  (AR v2)
Track 12  cannot be verified as accurate (confidence 13)  [CC6AABA8], AccurateRip returned [F2CA9E70]  (AR v2)
Track 13  cannot be verified as accurate (confidence 13)  [F6037BF2], AccurateRip returned [F39BB3F4]  (AR v2)
Track 14  cannot be verified as accurate (confidence 13)  [B122B3B3], AccurateRip returned [8CDFF25A]  (AR v2)
Track 15  cannot be verified as accurate (confidence 13)  [D7FC17D7], AccurateRip returned [A2D1FF32]  (AR v2)
Track 16  cannot be verified as accurate (confidence 13)  [0DC7A7AD], AccurateRip returned [A418D6D6]  (AR v2)
Track 17  cannot be verified as accurate (confidence 13)  [EE858D59], AccurateRip returned [69BD16B5]  (AR v2)
Track 18  cannot be verified as accurate (confidence 13)  [08E58A70], AccurateRip returned [BBEEEFD6]  (AR v2)
Track 19  cannot be verified as accurate (confidence 13)  [E9A885A0], AccurateRip returned [F6FF0DFF]  (AR v2)
Track 20  cannot be verified as accurate (confidence 13)  [5CC98FB5], AccurateRip returned [4A0BFEC3]  (AR v2)
Track 21  cannot be verified as accurate (confidence 13)  [E408749C], AccurateRip returned [14640BF1]  (AR v2)
Track 22  cannot be verified as accurate (confidence 13)  [21D516C9], AccurateRip returned [E026782C]  (AR v2)
Track 23  cannot be verified as accurate (confidence 13)  [7BB15E2F], AccurateRip returned [F18EE3A1]  (AR v2)
Track 24  cannot be verified as accurate (confidence 13)  [9325BF14], AccurateRip returned [004C75A7]  (AR v2)
Track 25  cannot be verified as accurate (confidence 12)  [7DA173D6], AccurateRip returned [1E71E8DA]  (AR v2)
 
No tracks could be verified as accurate
You may have a different pressing from the one(s) in the database

End of status report


==== Log checksum F4914FB0EC12EC2B91C132ABF67E4341809326D26159F11857F86C67FDE60680 ====



Create a new paste based on this one


Comments: