[ create a new paste ] login | about

Link: http://codepad.org/KUE3u0sf    [ raw code | fork ]

Plain Text, pasted on Aug 28:
foobar2000 1.1.10 / Dynamic Range Meter 1.1.1
log date: 2012-02-02 16:31:51

--------------------------------------------------------------------------------
Analyzed: Berlin / Top Gun - Motion Picture Soundtrack - Special Expanded Edition (1999 Remaster) (1)
          Cheap Trick / Top Gun - Motion Picture Soundtrack - Special Expanded Edition (1999 Remaster) (2)
          Harold Faltermeyer & Steve Stevens / Top Gun - Motion Picture Soundtrack - Special Expanded Edition (1999 Remaster) (3)
          Harold Faltermeyer / Top Gun - Motion Picture Soundtrack - Special Expanded Edition (1999 Remaster) (4)
          Jerry Lee Lewis / Top Gun - Motion Picture Soundtrack - Special Expanded Edition (1999 Remaster) (5)
          Kenny Loggins / Top Gun - Motion Picture Soundtrack - Special Expanded Edition (1999 Remaster) (6-8)
          Larry Greene / Top Gun - Motion Picture Soundtrack - Special Expanded Edition (1999 Remaster) (9)
          Loverboy / Top Gun - Motion Picture Soundtrack - Special Expanded Edition (1999 Remaster) (10)
          Marietta / Top Gun - Motion Picture Soundtrack - Special Expanded Edition (1999 Remaster) (11)
          Miami Sound Machine / Top Gun - Motion Picture Soundtrack - Special Expanded Edition (1999 Remaster) (12)
          Otis Redding / Top Gun - Motion Picture Soundtrack - Special Expanded Edition (1999 Remaster) (13)
          Teena Marie / Top Gun - Motion Picture Soundtrack - Special Expanded Edition (1999 Remaster) (14)
          The Righteous Brothers / Top Gun - Motion Picture Soundtrack - Special Expanded Edition (1999 Remaster) (15)
--------------------------------------------------------------------------------

DR         Peak         RMS     Duration Track
--------------------------------------------------------------------------------
DR10      -0.88 dB   -12.99 dB      4:15 05-Take My Breath Away (Love Theme From "Top Gun")
DR10      -0.47 dB   -12.78 dB      3:52 02-Mighty Wings
DR9       -0.90 dB   -12.93 dB      4:14 10-Top Gun Anthem
DR11      -2.22 dB   -17.23 dB      2:55 12-Memories
DR15      -0.32 dB   -17.41 dB      1:54 13-Great Balls Of Fire
DR10      -0.01 dB   -12.03 dB      3:37 01-Danger Zone
DR10      -1.87 dB   -13.14 dB      3:59 03-Playing With The Boys
DR11      -0.62 dB   -14.28 dB      6:41 15-Playing With The Boys (Dance Mix)
DR12      -0.18 dB   -13.85 dB      3:46 08-Through The Fire
DR10      -2.79 dB   -15.09 dB      4:05 07-Heaven In Your Eyes
DR10      -1.12 dB   -13.76 dB      3:49 09-Destination Unknown
DR11      -1.03 dB   -13.98 dB      3:39 06-Hot Summer Nights
DR11      -1.22 dB   -14.96 dB      2:43 11-(Sittin' On) The Dock Of The Bay
DR10      -1.17 dB   -13.53 dB      3:47 04-Lead Me On
DR11      -0.99 dB   -15.85 dB      3:44 14-You've Lost That Lovin' Feeling
--------------------------------------------------------------------------------

Number of tracks:  15
Official DR value: DR11

Samplerate:        88200 Hz
Channels:          2
Bits per sample:   24
Bitrate:           2677 kbps
Codec:             FLAC
================================================================================




Create a new paste based on this one


Comments: