[ create a new paste ] login | about

Link: http://codepad.org/KVupyEur    [ raw code | fork ]

Plain Text, pasted on Mar 9:
foobar2000 1.3 / Dynamic Range Meter 1.1.1
log date: 2014-02-03 13:57:19

--------------------------------------------------------------------------------
Analyzed: Lynyrd Skynyrd / Nuthin' Fancy (2013 AP Hybrid SACD)
--------------------------------------------------------------------------------

DR         Peak         RMS     Duration Track
--------------------------------------------------------------------------------
DR13      -2.85 dB   -18.00 dB      5:09 01-Saturday Night Special
DR13      -0.01 dB   -17.41 dB      4:39 02-Cheatin' Woman
DR14      -1.47 dB   -17.90 dB      4:15 03-Railroad Song
DR13      -1.86 dB   -17.06 dB      4:23 04-I'm A Country Boy
DR13      -1.85 dB   -17.52 dB      5:27 05-On The Hunt
DR14      -1.69 dB   -18.00 dB      4:35 06-Am I Losin'
DR15      -2.47 dB   -20.23 dB      4:38 07-Made In The Shade
DR14      -2.51 dB   -17.99 dB      4:19 08-Whiskey Rock-a-Roller
--------------------------------------------------------------------------------

Number of tracks:  8
Official DR value: DR14

Samplerate:        88200 Hz
Channels:          2
Bits per sample:   24
Bitrate:           2646 kbps
Codec:             FLAC
================================================================================




Create a new paste based on this one


Comments: