[ create a new paste ] login | about

Link: http://codepad.org/KWySR7KV    [ raw code | fork ]

Plain Text, pasted on Jun 11:
foobar2000 1.3.15 / Dynamic Range Meter 1.1.1
log date: 2017-06-04 23:07:36

--------------------------------------------------------------------------------
Analyzed: Bob Dylan / Bringing It All Back Home (2017 MFSL Mono Hybrid SACD)
--------------------------------------------------------------------------------

DR         Peak         RMS     Duration Track
--------------------------------------------------------------------------------
DR10      -1.01 dB   -12.76 dB      2:21 01-Subterranean Homesick Blues
DR11      -1.19 dB   -13.93 dB      2:52 02-She Belongs To Me
DR11      -0.19 dB   -12.42 dB      3:57 03-Maggie's Farm
DR10      -1.15 dB   -12.72 dB      2:52 04-Love Minus Zero/No Limit
DR9       -2.19 dB   -13.40 dB      3:02 05-Outlaw Blues
DR10      -1.60 dB   -13.25 dB      2:37 06-On The Road Again
DR10      -2.43 dB   -13.13 dB      6:36 07-Bob Dylan's 115th Dream
DR10      -2.50 dB   -14.65 dB      5:34 08-Mr. Tambourine Man
DR9       -3.42 dB   -14.00 dB      5:46 09-Gates Of Eden
DR10      -2.14 dB   -14.31 dB      7:37 10-It's Alright, Ma (I'm Only Bleeding)
DR9       -2.33 dB   -13.59 dB      4:18 11-It's All Over Now, Baby Blue
--------------------------------------------------------------------------------

Number of tracks:  11
Official DR value: DR10

Samplerate:        88200 Hz
Channels:          2
Bits per sample:   24
Bitrate:           2522 kbps
Codec:             FLAC
================================================================================




Create a new paste based on this one


Comments: