[ create a new paste ] login | about

Link: http://codepad.org/KbtcXyRk    [ raw code | fork ]

Plain Text, pasted on Mar 11:
Exact Audio Copy V1.1 from 23. June 2015

EAC extraction logfile from 22. January 2017, 10:16

The Band / The Last Waltz CD1

Used drive  : PLEXTOR BD-R  PX-B950SA   Adapter: 1  ID: 1

Read mode               : Secure
Utilize accurate stream : Yes
Defeat audio cache      : Yes
Make use of C2 pointers : No

Read offset correction                      : 6
Overread into Lead-In and Lead-Out          : No
Fill up missing offset samples with silence : Yes
Delete leading and trailing silent blocks   : No
Null samples used in CRC calculations       : Yes
Used interface                              : Native Win32 interface for Win NT & 2000

Used output format : Internal WAV Routines
Sample format      : 44.100 Hz; 16 Bit; Stereo


TOC of the extracted CD

     Track |   Start  |  Length  | Start sector | End sector 
    ---------------------------------------------------------
        1  |  0:00.00 |  3:52.05 |         0    |    17404   
        2  |  3:52.05 |  5:31.35 |     17405    |    42264   
        3  |  9:23.40 |  4:10.25 |     42265    |    61039   
        4  | 13:33.65 |  6:51.15 |     61040    |    91879   
        5  | 20:25.05 |  4:51.05 |     91880    |   113709   
        6  | 25:16.10 |  4:25.60 |    113710    |   133644   
        7  | 29:41.70 |  4:41.57 |    133645    |   154776   
        8  | 34:23.52 |  4:50.50 |    154777    |   176576   
        9  | 39:14.27 |  3:11.00 |    176577    |   190901   
       10  | 42:25.27 |  3:54.15 |    190902    |   208466   
       11  | 46:19.42 |  5:03.55 |    208467    |   231246   
       12  | 51:23.22 |  6:08.58 |    231247    |   258904   
       13  | 57:32.05 |  6:40.50 |    258905    |   288954   
       14  | 64:12.55 |  4:31.17 |    288955    |   309296   


Range status and errors

Selected range

     Filename C:\The Band\1978 The Last Waltz (4CD + Blu-ray Box Set Rhino Records 2016)\CD1\The Band - The Last Waltz CD1.wav

     Peak level 100.0 %
     Extraction speed 8.1 X
     Range quality 100.0 %
     Test CRC 596297FE
     Copy CRC 596297FE
     Copy OK

No errors occurred

 
AccurateRip summary
 
Track  1  accurately ripped (confidence 2)  [B05C4B85]  (AR v2)
Track  2  accurately ripped (confidence 2)  [80089DEA]  (AR v2)
Track  3  accurately ripped (confidence 2)  [834B3DA6]  (AR v2)
Track  4  accurately ripped (confidence 2)  [1C618D5B]  (AR v2)
Track  5  accurately ripped (confidence 2)  [674FDEEA]  (AR v2)
Track  6  accurately ripped (confidence 2)  [318EE994]  (AR v2)
Track  7  accurately ripped (confidence 2)  [8560C471]  (AR v2)
Track  8  accurately ripped (confidence 2)  [9FED09EA]  (AR v2)
Track  9  accurately ripped (confidence 2)  [AF31E3D1]  (AR v2)
Track 10  accurately ripped (confidence 2)  [EF62857D]  (AR v2)
Track 11  accurately ripped (confidence 2)  [8B8C54A1]  (AR v2)
Track 12  accurately ripped (confidence 2)  [263F468A]  (AR v2)
Track 13  accurately ripped (confidence 2)  [B4A2BA1E]  (AR v2)
Track 14  accurately ripped (confidence 2)  [843B15C8]  (AR v2)
 
All tracks accurately ripped

End of status report

---- CUETools DB Plugin V2.1.6

[CTDB TOCID: la2gpju4Dm5cENf6CH4C9T7gRN0-] found
Submit result: la2gpju4Dm5cENf6CH4C9T7gRN0- has been confirmed
Track | CTDB Status
  1   | (76/76) Accurately ripped
  2   | (76/76) Accurately ripped
  3   | (76/76) Accurately ripped
  4   | (76/76) Accurately ripped
  5   | (76/76) Accurately ripped
  6   | (76/76) Accurately ripped
  7   | (74/76) Accurately ripped
  8   | (75/76) Accurately ripped
  9   | (75/76) Accurately ripped
 10   | (76/76) Accurately ripped
 11   | (76/76) Accurately ripped
 12   | (75/76) Accurately ripped
 13   | (76/76) Accurately ripped
 14   | (75/76) Accurately ripped


==== Log checksum B0DE7621E6B93AE908AF3BC3A892FE98BFCCDEADBA0A12F4314AA71457776301 ====



Create a new paste based on this one


Comments: