[ create a new paste ] login | about

Link: http://codepad.org/KcR9rD1m    [ raw code | fork ]

Plain Text, pasted on May 20:
foobar2000 1.3.15 / Dynamic Range Meter 1.1.1
log date: 2017-05-19 22:10:09

--------------------------------------------------------------------------------
Analyzed: ? / ?
--------------------------------------------------------------------------------

DR         Peak         RMS     Duration Track
--------------------------------------------------------------------------------
DR10      -5.99 dB   -22.11 dB      3:13 01-Cara Mia - David Whitfield
DR11      -5.99 dB   -22.78 dB      2:52 02-Vaya Con Dios - L.Paul&M.Ford
DR12      -5.99 dB   -21.83 dB      2:29 03-Singing the Blues - Guy Mitchell
DR10      -5.99 dB   -19.94 dB      2:40 04-Cold Cold Heart - Tony Bennet
DR11      -5.99 dB   -21.40 dB      3:05 05-Cry - Johnny Ray
DR11      -5.98 dB   -21.05 dB      2:50 06-Half as much - Rosemary Clooney
DR12      -6.00 dB   -22.74 dB      2:44 07-A guy is a guy - Doris Day
DR11      -5.98 dB   -23.26 dB      2:36 08-Hernando´s Hideaway - Archie Bleyer
DR14      -5.99 dB   -26.48 dB      2:43 09-Love me Tender - Elvis Presley
DR10      -5.99 dB   -20.34 dB      2:43 10-On the street where you live - Vic Damone
DR11      -5.99 dB   -22.86 dB      2:38 11-A tear fell - Teresa Brewer
DR10      -5.99 dB   -20.18 dB      2:41 12-Great Pretender - The Platters
DR12      -6.00 dB   -25.38 dB      2:59 13-Banana Boat Song - Harry Belefonte
DR14      -5.94 dB   -25.45 dB      3:09 14-Tweedle Dee - Laverne Baker
DR12      -5.99 dB   -24.47 dB      2:42 15-Answer me - Frankie Laine
DR12      -5.99 dB   -23.89 dB      2:06 16-Seventeen - Fontane Sisters 
DR11      -6.00 dB   -22.18 dB      2:16 17-Green Door - Jim Lowe
DR12      -6.00 dB   -23.10 dB      2:50 18-If you love me - Kay Starr
DR10      -5.98 dB   -21.28 dB      3:04 19-True Love - Bing Crosby&Grace Kelly
DR9       -5.98 dB   -19.44 dB      2:38 20-Only you - The platters
DR12      -6.05 dB   -23.65 dB      2:21 21-Dance with me Henry - Georgia Gibbs
DR12      -5.96 dB   -24.47 dB      2:16 22-Don´t forbid me - Pat Boone
DR11      -5.99 dB   -22.15 dB      3:10 23-That´s Amore - Dean Martin
DR11      -5.99 dB   -21.52 dB      2:31 24-Such a night - The drifters
DR10      -5.99 dB   -21.27 dB      2:04 25-Don´t be Cruel - Elvis Presly
--------------------------------------------------------------------------------

Number of tracks:  25
Official DR value: DR11

Samplerate:        2822400 Hz / PCM Samplerate: 88200 Hz
Channels:          6
Bits per sample:   1
Bitrate:           16934 kbps
Codec:             DST64
================================================================================

--------------------------------------------------------------------------------
Analyzed: ? / ?
--------------------------------------------------------------------------------

DR         Peak         RMS     Duration Track
--------------------------------------------------------------------------------
DR9       -6.00 dB   -18.29 dB      3:13 01-Cara Mia - David Whitfield
DR11      -5.98 dB   -19.66 dB      2:52 02-Vaya Con Dios - L.Paul&M.Ford
DR12      -6.00 dB   -18.94 dB      2:29 03-Singing the Blues - Guy Mitchell
DR9       -5.99 dB   -16.77 dB      2:40 04-Cold Cold Heart - Tony Bennet
DR10      -5.99 dB   -18.13 dB      3:05 05-Cry - Johnny Ray
DR10      -6.00 dB   -18.22 dB      2:50 06-Half as much - Rosemary Clooney
DR11      -5.99 dB   -19.44 dB      2:44 07-A guy is a guy - Doris Day
DR11      -5.99 dB   -19.98 dB      2:36 08-Hernando´s Hideaway - Archie Bleyer
DR13      -5.99 dB   -23.20 dB      2:43 09-Love me Tender - Elvis Presley
DR9       -5.99 dB   -17.37 dB      2:43 10-On the street where you live - Vic Damone
DR11      -6.00 dB   -19.84 dB      2:38 11-A tear fell - Teresa Brewer
DR9       -5.99 dB   -17.26 dB      2:41 12-Great Pretender - The Platters
DR13      -5.99 dB   -22.31 dB      2:59 13-Banana Boat Song - Harry Belefonte
DR14      -5.98 dB   -22.39 dB      3:09 14-Tweedle Dee - Laverne Baker
DR12      -5.97 dB   -21.12 dB      2:42 15-Answer me - Frankie Laine
DR12      -5.99 dB   -20.94 dB      2:06 16-Seventeen - Fontane Sisters 
DR10      -5.99 dB   -19.08 dB      2:16 17-Green Door - Jim Lowe
DR11      -5.99 dB   -19.89 dB      2:50 18-If you love me - Kay Starr
DR9       -5.98 dB   -17.77 dB      3:04 19-True Love - Bing Crosby&Grace Kelly
DR8       -5.99 dB   -16.15 dB      2:38 20-Only you - The platters
DR13      -5.98 dB   -21.07 dB      2:21 21-Dance with me Henry - Georgia Gibbs
DR13      -6.02 dB   -22.23 dB      2:16 22-Don´t forbid me - Pat Boone
DR10      -5.99 dB   -18.89 dB      3:10 23-That´s Amore - Dean Martin
DR10      -5.99 dB   -17.35 dB      2:31 24-Such a night - The drifters
DR10      -5.99 dB   -17.97 dB      2:04 25-Don´t be Cruel - Elvis Presly
--------------------------------------------------------------------------------

Number of tracks:  25
Official DR value: DR11

Samplerate:        2822400 Hz / PCM Samplerate: 88200 Hz
Channels:          2
Bits per sample:   1
Bitrate:           5645 kbps
Codec:             DST64
================================================================================




Create a new paste based on this one


Comments: