[ create a new paste ] login | about

Link: http://codepad.org/KhD3DSH7    [ raw code | fork ]

Plain Text, pasted on Sep 24:
foobar2000 1.3.17 / Dynamic Range Meter 1.1.1
log date: 2018-09-23 19:10:25

--------------------------------------------------------------------------------
Analyzed: The Band / The Band  - Music From Big Pink
--------------------------------------------------------------------------------

DR         Peak         RMS     Duration Track
--------------------------------------------------------------------------------
DR13      -0.10 dB   -16.02 dB      5:25 01-Tears Of Rage
DR14      -0.10 dB   -16.63 dB      3:21 02-To Kingdom Come
DR12      -0.10 dB   -16.47 dB      3:34 03-In A Station
DR14      -0.10 dB   -16.05 dB      2:57 04-Caledonia Mission
DR12      -0.10 dB   -15.95 dB      4:45 05-The Weight
DR13      -0.10 dB   -16.05 dB      3:06 06-We Can Talk
DR12      -0.10 dB   -15.74 dB      3:04 07-Long Black Veil
DR13      -0.10 dB   -17.16 dB      5:25 08-Chest Fever
DR12      -0.10 dB   -17.70 dB      4:09 09-Lonesome Suzie
DR12      -0.10 dB   -15.19 dB      3:25 10-This Wheel's On Fire
DR14      -0.10 dB   -18.26 dB      3:18 11-I Shall Be Released
DR14      -0.16 dB   -16.85 dB      4:12 12-Yazoo Street Scandal (Outtake)
DR13      -0.10 dB   -15.79 dB      5:33 13-Tears Of Rage (Alternate Take)
DR12      -0.10 dB   -18.23 dB      4:34 14-Long Distance Operator (Outtake)
DR13      -0.10 dB   -16.39 dB      3:01 15-Lonesome Suzie (Alternate Version)
DR13      -0.10 dB   -15.79 dB      2:29 16-Key To The Highway (Outtake)
DR11      -1.46 dB   -21.91 dB      3:06 17-I Shall Be Released (A Capella)
--------------------------------------------------------------------------------

Number of tracks:  17
Official DR value: DR13

Samplerate:        96000 Hz
Channels:          6
Bits per sample:   24
Bitrate:           7545 kbps
Codec:             FLAC
================================================================================




Create a new paste based on this one


Comments: