[ create a new paste ] login | about

Link: http://codepad.org/KhS7Gdcz    [ raw code | fork ]

Plain Text, pasted on Dec 24:
foobar2000 1.4.1 / Dynamic Range Meter 1.1.1
log date: 2018-12-24 11:06:04

--------------------------------------------------------------------------------
Analyzed: Simon And Garfunkel / Parsley, Sage, Rosemary And Thyme
--------------------------------------------------------------------------------

DR         Peak         RMS     Duration Track
--------------------------------------------------------------------------------
DR9       -7.98 dB   -20.12 dB      3:09 01-Scarborough Fair/Canticle
DR11      -5.66 dB   -19.33 dB      2:41 02-Patterns
DR9       -8.16 dB   -20.89 dB      2:12 03-Cloudy
DR10      -7.09 dB   -20.12 dB      2:29 04-Homeward Bound
DR10      -7.15 dB   -19.33 dB      2:42 05-The Big Bright Green Pleasure Machine
DR10      -7.28 dB   -19.12 dB      1:43 06-The 59th Street Bridge Song (Feelin' Groovy)
DR9       -7.39 dB   -19.73 dB      2:37 07-The Dangling Conversation
DR10      -7.43 dB   -19.54 dB      2:11 08-Flowers Never Bend With The Rainfall
DR10      -6.75 dB   -18.93 dB      2:13 09-A Simple Desultory Philippic (Or How I Was Robert McNamara'd Into Submission)
DR9       -7.72 dB   -22.01 dB      2:05 10-For Emily, Whenever I May Find Her
DR10      -6.89 dB   -19.06 dB      1:53 11-A Poem On The Underground Wall
DR10      -9.32 dB   -22.80 dB      2:02 12-7 O'Clock News/Silent Night
--------------------------------------------------------------------------------

Number of tracks:  12
Official DR value: DR10

Samplerate:        2822400 Hz / PCM Samplerate: 176400 Hz
Channels:          2
Bits per sample:   1
Bitrate:           5645 kbps
Codec:             DSD64
================================================================================




Create a new paste based on this one


Comments: