[ create a new paste ] login | about

Link: http://codepad.org/KiLgKT8P    [ raw code | fork ]

Plain Text, pasted on Dec 2:
foobar2000 1.3.17 / Dynamic Range Meter 1.1.1
log date: 2018-12-02 08:34:54

--------------------------------------------------------------------------------
Analyzed: The Jimi Hendrix Experience / Axis: Bold As Love
--------------------------------------------------------------------------------

DR         Peak         RMS     Duration Track
--------------------------------------------------------------------------------
DR9       -1.13 dB   -18.57 dB      1:57 01-Exp
DR12      -3.70 dB   -17.60 dB      2:57 02-Up From The Skies
DR10      -1.83 dB   -13.68 dB      3:06 03-Spanish Castle Magic
DR12      -0.80 dB   -14.92 dB      3:02 04-Wait Until Tomorrow
DR11      -0.59 dB   -13.94 dB      1:50 05-Ain't No Telling
DR10      -2.45 dB   -16.03 dB      2:30 06-Little Wing
DR9       -2.55 dB   -14.50 dB      5:36 07-If 6 Was 9
DR9       -2.40 dB   -14.17 dB      2:49 08-You Got Me Floatin'
DR11      -2.96 dB   -17.99 dB      2:49 09-Castles Made of Sand
DR10      -1.66 dB   -13.09 dB      2:41 10-She's So Fine
DR10      -3.39 dB   -16.54 dB      3:46 11-One Rainy Wish
DR9       -2.72 dB   -14.48 dB      2:26 12-Little Miss Lover
DR10      -0.90 dB   -13.82 dB      4:23 13-Bold as Love
DR10      -3.46 dB   -21.96 dB      1:13 14-Exp (Mono)
DR12      -2.52 dB   -16.39 dB      2:59 15-Up From The Skies (Mono)
DR11      -1.56 dB   -14.62 dB      3:05 16-Spanish Castle Magic (Mono)
DR12      -1.26 dB   -15.44 dB      3:03 17-Wait Until Tomorrow (Mono)
DR11      -1.48 dB   -14.54 dB      1:49 18-Ain't No Telling (Mono)
DR12      -1.27 dB   -16.75 dB      2:27 19-Little Wing (Mono)
DR13      -1.46 dB   -16.61 dB      5:37 20-If 6 Was 9 (Mono)
DR11      -1.10 dB   -14.81 dB      2:39 21-You Got Me Floatin' (Mono)
DR12      -3.18 dB   -19.32 dB      2:49 22-Castles Made Of Sand (Mono)
DR12      -0.11 dB   -14.25 dB      2:42 23-She's So Fine (Mono)
DR11      -2.12 dB   -15.88 dB      3:43 24-One Rainy Wish (Mono)
DR11      -2.47 dB   -15.27 dB      2:24 25-Little Miss Lover (Mono)
DR13      -0.01 dB   -15.61 dB      4:16 26-Bold As Love (Mono)
--------------------------------------------------------------------------------

Number of tracks:  26
Official DR value: DR11

Samplerate:        88200 Hz
Channels:          2
Bits per sample:   24
Bitrate:           2333 kbps
Codec:             FLAC
================================================================================




Create a new paste based on this one


Comments: