[ create a new paste ] login | about

Link: http://codepad.org/KjllwRFJ    [ raw code | fork ]

Plain Text, pasted on Jan 10:
foobar2000 1.5 / Dynamic Range Meter 1.1.1
log date: 2020-01-10 07:57:59

--------------------------------------------------------------------------------
Analyzed: Marvin Gaye / What's Going On [2019 MoFi 45RPM One-Step - VM760SLC]
--------------------------------------------------------------------------------

DR         Peak         RMS     Duration Track
--------------------------------------------------------------------------------
DR14      -0.14 dB   -16.06 dB      3:53 01-What's Going On
DR12      -2.05 dB   -15.86 dB      2:43 02-What's Happening Brother
DR10      -3.75 dB   -16.16 dB      3:48 03-Flyin' High (In The Friendly Sky)
DR12      -1.44 dB   -16.68 dB      4:01 04-Save The Children
DR12      -2.16 dB   -14.81 dB      1:41 05-God Is Love
DR11      -1.64 dB   -15.46 dB      3:16 06-Mercy Mercy Me (The Ecology)
DR13      -1.57 dB   -16.88 dB      7:29 07-Right On
DR11      -2.97 dB   -17.67 dB      3:07 08-Wholy Holy
DR13      -0.85 dB   -16.44 dB      5:30 09-Inner City Blues (Make Me Wanna Holler)
--------------------------------------------------------------------------------

Number of tracks:  9
Official DR value: DR12

Samplerate:        192000 Hz
Channels:          2
Bits per sample:   24
Bitrate:           5297 kbps
Codec:             FLAC
================================================================================




Create a new paste based on this one


Comments: