[ create a new paste ] login | about

Link: http://codepad.org/KptrQQmV    [ raw code | fork ]

Plain Text, pasted on Nov 27:
CD-QUALITY
::::::::::

foobar2000 1.6 / Dynamic Range Meter 1.1.1
log date: 2020-11-27 01:51:39

--------------------------------------------------------------------------------
Analyzed: U2 / All That You Can’t Leave Behind (20th Anniversary - Super Deluxe)
--------------------------------------------------------------------------------

DR         Peak         RMS     Duration Track
--------------------------------------------------------------------------------
DR6       -0.29 dB    -9.77 dB      4:07 01-Beautiful Day
DR6       -0.28 dB    -8.22 dB      4:32 02-Stuck In A Moment You Can't Get Out Of
DR7       -0.24 dB    -9.51 dB      3:47 03-Elevation
DR7       -0.30 dB    -9.34 dB      4:56 04-Walk On
DR8       -0.30 dB    -9.67 dB      4:27 05-Kite
DR8       -0.37 dB   -10.02 dB      3:39 06-In A Little While
DR8       -0.30 dB    -9.04 dB      3:47 07-Wild Honey
DR9       -0.38 dB   -12.96 dB      4:48 08-Peace On Earth
DR8       -0.20 dB    -9.53 dB      4:18 09-When I Look At The World
DR6       -0.30 dB   -10.13 dB      5:30 10-New York
DR10      -0.37 dB   -11.86 dB      5:31 11-Grace
DR7       -0.20 dB   -10.24 dB      3:44 12-The Ground Beneath Her Feet
DR7       -0.30 dB   -10.01 dB      5:10 13-Levitate (From 'All That You Can't Leave Behind' Sessions)
DR8       -0.20 dB    -9.52 dB      4:08 14-Summer Rain
DR7       -0.35 dB   -10.09 dB      4:07 15-Stateless
DR8       -0.30 dB    -9.99 dB      3:49 16-Always
DR7       -0.30 dB    -9.94 dB      4:19 17-Love You Like Mad (From 'All That You Can't Leave Behind' Sessions)
DR9       -0.20 dB    -9.95 dB      3:36 18-Big Girls Are Best
DR8       -0.30 dB   -10.19 dB      4:14 19-Don't Take Your Guns To Town (A Tribute To Johnny Cash, Dublin / 1999)
DR9       -0.20 dB   -11.25 dB      3:44 20-Stuck In A Moment You Can't Get Out Of (Acoustic Version)
DR8       -0.30 dB   -10.28 dB      4:55 21-Flower Child (From 'All That You Can't Leave Behind' Sessions)
DR7       -0.33 dB    -9.24 dB      5:09 22-Elevation
DR6       -0.33 dB    -8.38 dB      4:43 23-Beautiful Day
DR6       -0.33 dB    -7.25 dB      5:15 24-Until The End Of The World
DR6       -0.33 dB    -8.71 dB      5:41 25-Stuck In A Moment You Can't Get Out Of
DR6       -0.33 dB    -7.69 dB      5:25 26-Kite
DR6       -0.33 dB    -7.66 dB      4:55 27-Gone
DR7       -0.33 dB    -9.72 dB      5:51 28-New York
DR7       -0.33 dB    -9.51 dB      5:10 29-I Will Follow
DR5       -0.33 dB    -7.39 dB      7:24 30-Sunday Bloody Sunday
DR9       -0.33 dB   -12.84 dB      6:54 31-In A Little While
DR8       -0.33 dB   -10.69 dB      3:06 32-Desire
DR9       -0.33 dB   -12.29 dB      4:50 33-Stay (Faraway, So Close!)
DR8       -0.33 dB   -10.19 dB      6:23 34-Bad
DR4       -0.33 dB    -5.28 dB      6:31 35-Where The Streets Have No Name
DR6       -0.33 dB    -8.34 dB      6:19 36-Bullet The Blue Sky
DR6       -0.33 dB    -8.40 dB      5:31 37-With Or Without You
DR6       -0.33 dB    -8.58 dB      7:56 38-The Fly
DR11      -4.22 dB   -19.94 dB      1:25 39-Wake Up Dead Man
DR6       -0.33 dB    -7.67 dB      6:38 40-Walk On
DR7       -0.38 dB    -9.64 dB      7:57 41-Elevation (Paul Van Dyk Remix)
DR8       -0.32 dB   -10.10 dB      4:03 42-Elevation (Influx Remix)
DR7       -0.80 dB    -9.43 dB      7:05 43-New York (Carnegie's Deli Remix)
DR8       -0.57 dB   -10.68 dB      7:31 44-New York (Superman Kicks Ativan Remix)
DR6       -1.14 dB    -9.30 dB      7:57 45-Beautiful Day (Quincey & Sonance Remix)
DR7       -0.32 dB    -8.07 dB      7:51 46-Beautiful Day (The Perfecto Mix)
DR8       -0.38 dB   -10.54 dB      5:15 47-In A Little While (Nightmares On Wax Remix)
DR7       -0.49 dB    -9.85 dB      4:44 48-Walk On (Wyclef Jean Remix)
DR7       -0.37 dB    -9.85 dB      5:14 49-When I Look At The World (Picante Remix)
DR5       -0.32 dB    -8.51 dB      7:05 50-Elevation (Escalation Mix)
DR7       -0.38 dB    -9.57 dB      6:55 51-Elevation (Quincey & Sonance Remix)
--------------------------------------------------------------------------------

Number of tracks:  51
Official DR value: DR7

Samplerate:        44100 Hz
Channels:          2
Bits per sample:   16
Bitrate:           924 kbps
Codec:             FLAC
================================================================================



HI-RES
::::::

foobar2000 1.6 / Dynamic Range Meter 1.1.1
log date: 2020-11-26 19:11:02

--------------------------------------------------------------------------------
Analyzed: U2 / All That You Can’t Leave Behind (20th Anniversary - Super Deluxe)
--------------------------------------------------------------------------------

DR         Peak         RMS     Duration Track
--------------------------------------------------------------------------------
DR6       -0.29 dB    -9.77 dB      4:07 01-Beautiful Day
DR6       -0.28 dB    -8.22 dB      4:32 02-Stuck In A Moment You Can't Get Out Of
DR7       -0.24 dB    -9.51 dB      3:47 03-Elevation
DR7       -0.30 dB    -9.34 dB      4:56 04-Walk On
DR8       -0.30 dB    -9.67 dB      4:27 05-Kite
DR8       -0.37 dB   -10.02 dB      3:39 06-In A Little While
DR8       -0.30 dB    -9.04 dB      3:47 07-Wild Honey
DR9       -0.38 dB   -12.96 dB      4:48 08-Peace On Earth
DR8       -0.20 dB    -9.53 dB      4:18 09-When I Look At The World
DR6       -0.30 dB   -10.13 dB      5:30 10-New York
DR10      -0.37 dB   -11.86 dB      5:31 11-Grace
DR7       -0.20 dB   -10.24 dB      3:44 12-The Ground Beneath Her Feet
DR7       -0.30 dB   -10.01 dB      5:10 13-Levitate (From 'All That You Can't Leave Behind' Sessions)
DR8       -0.20 dB    -9.52 dB      4:08 14-Summer Rain
DR7       -0.35 dB   -10.09 dB      4:07 15-Stateless
DR8       -0.30 dB    -9.99 dB      3:49 16-Always
DR7       -0.30 dB    -9.94 dB      4:19 17-Love You Like Mad (From 'All That You Can't Leave Behind' Sessions)
DR9       -0.20 dB    -9.95 dB      3:36 18-Big Girls Are Best
DR8       -0.30 dB   -10.19 dB      4:14 19-Don't Take Your Guns To Town (A Tribute To Johnny Cash, Dublin / 1999)
DR9       -0.20 dB   -11.25 dB      3:44 20-Stuck In A Moment You Can't Get Out Of (Acoustic Version)
DR8       -0.30 dB   -10.28 dB      4:55 21-Flower Child (From 'All That You Can't Leave Behind' Sessions)
DR7       -0.33 dB    -9.24 dB      5:09 22-Elevation
DR6       -0.33 dB    -8.38 dB      4:43 23-Beautiful Day
DR6       -0.33 dB    -7.25 dB      5:15 24-Until The End Of The World
DR6       -0.33 dB    -8.71 dB      5:41 25-Stuck In A Moment You Can't Get Out Of
DR6       -0.33 dB    -7.69 dB      5:25 26-Kite
DR6       -0.33 dB    -7.66 dB      4:55 27-Gone
DR7       -0.33 dB    -9.72 dB      5:51 28-New York
DR7       -0.33 dB    -9.51 dB      5:10 29-I Will Follow
DR5       -0.33 dB    -7.39 dB      7:24 30-Sunday Bloody Sunday
DR9       -0.33 dB   -12.84 dB      6:54 31-In A Little While
DR8       -0.33 dB   -10.69 dB      3:06 32-Desire
DR9       -0.33 dB   -12.29 dB      4:50 33-Stay (Faraway, So Close!)
DR8       -0.33 dB   -10.19 dB      6:23 34-Bad
DR4       -0.33 dB    -5.28 dB      6:31 35-Where The Streets Have No Name
DR6       -0.33 dB    -8.34 dB      6:19 36-Bullet The Blue Sky
DR6       -0.33 dB    -8.40 dB      5:31 37-With Or Without You
DR6       -0.33 dB    -8.58 dB      7:56 38-The Fly
DR11      -4.22 dB   -19.94 dB      1:25 39-Wake Up Dead Man
DR6       -0.33 dB    -7.67 dB      6:38 40-Walk On
DR7       -0.38 dB    -9.64 dB      7:57 41-Elevation (Paul Van Dyk Remix)
DR8       -0.32 dB   -10.10 dB      4:03 42-Elevation (Influx Remix)
DR7       -0.80 dB    -9.43 dB      7:05 43-New York (Carnegie's Deli Remix)
DR8       -0.57 dB   -10.68 dB      7:31 44-New York (Superman Kicks Ativan Remix)
DR6       -1.15 dB    -9.30 dB      7:57 45-Beautiful Day (Quincey & Sonance Remix)
DR7       -0.32 dB    -8.07 dB      7:51 46-Beautiful Day (The Perfecto Mix)
DR8       -0.38 dB   -10.54 dB      5:15 47-In A Little While (Nightmares On Wax Remix)
DR7       -0.49 dB    -9.85 dB      4:44 48-Walk On (Wyclef Jean Remix)
DR7       -0.37 dB    -9.85 dB      5:14 49-When I Look At The World (Picante Remix)
DR5       -0.32 dB    -8.51 dB      7:05 50-Elevation (Escalation Mix)
DR7       -0.38 dB    -9.57 dB      6:55 51-Elevation (Quincey & Sonance Remix)
--------------------------------------------------------------------------------

Number of tracks:  51
Official DR value: DR7

Samplerate:        44100 Hz
Channels:          2
Bits per sample:   24
Bitrate:           1626 kbps
Codec:             FLAC
================================================================================





Create a new paste based on this one


Comments: