[ create a new paste ] login | about

Link: http://codepad.org/KqIIODkz    [ raw code | fork ]

Plain Text, pasted on Nov 5:
[CUETools log; Date: 11/5/2016 10:03:29 AM; Version: 2.1.5]
[CTDB TOCID: ZTvYPNo4ZhnZJnuQzN6_zNgygYc-] found.
Track | CTDB Status
  1   | (222/225) Accurately ripped
  2   | (224/225) Accurately ripped
  3   | (223/225) Accurately ripped
  4   | (220/225) Accurately ripped
  5   | (221/225) Accurately ripped
  6   | (222/225) Accurately ripped
  7   | (222/225) Accurately ripped
  8   | (223/225) Accurately ripped
  9   | (222/225) Accurately ripped
 10   | (224/225) Accurately ripped
 11   | (222/225) Accurately ripped
 12   | (222/225) Accurately ripped
 13   | (219/225) Accurately ripped
 14   | (222/225) Accurately ripped
 15   | (221/225) Accurately ripped
 16   | (220/225) Accurately ripped
 17   | (218/225) Accurately ripped
 18   | (215/225) Accurately ripped
[AccurateRip ID: 0034d0b7-02c0604a-1d129c12] found.
Track   [  CRC   |   V2   ] Status
 01     [c7e0d020|b4c461c2] (027+050/184) Accurately ripped
 02     [4e726858|9877f7fc] (026+050/185) Accurately ripped
 03     [9f5790f0|9f64ad49] (027+050/183) Accurately ripped
 04     [6e4f9d29|db4b808e] (029+050/182) Accurately ripped
 05     [5c8cd9af|293348b6] (029+050/185) Accurately ripped
 06     [c60c8fe8|7d8f64d5] (028+050/181) Accurately ripped
 07     [404ae985|60c652f6] (027+050/181) Accurately ripped
 08     [49e30cd6|8ca0e5f8] (028+050/183) Accurately ripped
 09     [76ad679b|cae58b82] (026+050/180) Accurately ripped
 10     [8ebbdd63|e9987305] (027+050/181) Accurately ripped
 11     [558f416c|476901cd] (027+050/179) Accurately ripped
 12     [30e1b677|2b5f846d] (026+050/180) Accurately ripped
 13     [a78699a8|52990c33] (027+050/182) Accurately ripped
 14     [80f11abe|a0a43a4a] (027+050/183) Accurately ripped
 15     [a725f881|3008661f] (027+050/181) Accurately ripped
 16     [ff4af6d2|6ebcc3ae] (027+050/177) Accurately ripped
 17     [26da6c12|59d2e32d] (029+050/179) Accurately ripped
 18     [d3e6e0dc|25278b5d] (027+049/174) Accurately ripped
Offsetted by -890:
 01     [29614f58] (007/184) Accurately ripped
 02     [457fbadc] (008/185) Accurately ripped
 03     [f0d2e536] (007/183) Accurately ripped
 04     [3e0c792d] (007/182) Accurately ripped
 05     [c7e90fb9] (007/185) Accurately ripped
 06     [981e320c] (007/181) Accurately ripped
 07     [ca215fe1] (007/181) Accurately ripped
 08     [f67a5860] (007/183) Accurately ripped
 09     [6930a847] (007/180) Accurately ripped
 10     [048bf05f] (007/181) Accurately ripped
 11     [b2c914be] (007/179) Accurately ripped
 12     [f7397435] (007/180) Accurately ripped
 13     [01af7ee8] (007/182) Accurately ripped
 14     [a3f0bf82] (007/183) Accurately ripped
 15     [79b21983] (007/181) Accurately ripped
 16     [22a82796] (007/177) Accurately ripped
 17     [e445deba] (007/179) Accurately ripped
 18     [b0080136] (007/174) Accurately ripped
Offsetted by -664:
 01     [15cc7940] (055/184) Accurately ripped
 02     [69b67348] (055/185) Accurately ripped
 03     [0c74df58] (055/183) Accurately ripped
 04     [10336219] (053/182) Accurately ripped
 05     [670a0607] (053/185) Accurately ripped
 06     [237e6458] (052/181) Accurately ripped
 07     [bcfd5315] (054/181) Accurately ripped
 08     [4dd0c32e] (054/183) Accurately ripped
 09     [c5354beb] (053/180) Accurately ripped
 10     [f5031c73] (054/181) Accurately ripped
 11     [5e21f2a4] (053/179) Accurately ripped
 12     [899ad4ff] (054/180) Accurately ripped
 13     [350094a8] (054/182) Accurately ripped
 14     [686dacae] (055/183) Accurately ripped
 15     [91e4cef9] (053/181) Accurately ripped
 16     [98d058c2] (051/177) Accurately ripped
 17     [09e3d372] (052/179) Accurately ripped
 18     [6f8107f4] (050/174) Accurately ripped
Offsetted by -646:
 01     [9c2b18e8] (002/184) Accurately ripped
 02     [3d0591d4] (002/185) Accurately ripped
 03     [035476aa] (002/183) Accurately ripped
 04     [c1c9bd25] (002/182) Accurately ripped
 05     [912a19a5] (002/185) Accurately ripped
 06     [4783c9c4] (002/181) Accurately ripped
 07     [4f331729] (002/181) Accurately ripped
 08     [c84fb74c] (002/183) Accurately ripped
 09     [8d1a7aef] (002/180) Accurately ripped
 10     [1805ce67] (002/181) Accurately ripped
 11     [6bc79c1a] (002/179) Accurately ripped
 12     [c292bab9] (002/180) Accurately ripped
 13     [d5687468] (002/182) Accurately ripped
 14     [87efb1fa] (002/183) Accurately ripped
 15     [8ac2557f] (002/181) Accurately ripped
 16     [0160020e] (002/177) Accurately ripped
 17     [2c9a516a] (002/179) Accurately ripped
 18     [87d0e682] (002/174) Accurately ripped
Offsetted by -676:
 01     [bc380ed0] (000/184) No match (V2 was not tested)
 02     [8781b440] (000/185) No match (V2 was not tested)
 03     [67dfcfcc] (000/183) No match (V2 was not tested)
 04     [4479d011] (000/182) No match (V2 was not tested)
 05     [a049f8f3] (000/185) No match (V2 was not tested)
 06     [b6257610] (000/181) No match (V2 was not tested)
 07     [062ed05d] (000/181) No match (V2 was not tested)
 08     [fc26cb1a] (000/183) No match (V2 was not tested)
 09     [95472c93] (000/180) No match (V2 was not tested)
 10     [3301507b] (000/181) No match (V2 was not tested)
 11     [5508d700] (000/179) No match (V2 was not tested)
 12     [0e4ae683] (000/180) No match (V2 was not tested)
 13     [ca10aa28] (000/182) No match (V2 was not tested)
 14     [a8c1a926] (000/183) No match (V2 was not tested)
 15     [41511ff5] (000/181) No match (V2 was not tested)
 16     [531b3d3a] (000/177) No match (V2 was not tested)
 17     [9d6a2a22] (000/179) No match (V2 was not tested)
 18     [b4a11e40] (000/174) No match (V2 was not tested)
Offsetted by -151:
 01     [0b553f74] (002/184) Accurately ripped
 02     [700559de] (002/185) Accurately ripped
 03     [885937f9] (002/183) Accurately ripped
 04     [557084ef] (002/182) Accurately ripped
 05     [179c351e] (003/185) Accurately ripped
 06     [26182ede] (002/181) Accurately ripped
 07     [03f9a74f] (002/181) Accurately ripped
 08     [70f2f085] (002/183) Accurately ripped
 09     [063907dd] (002/180) Accurately ripped
 10     [5acfec1d] (002/181) Accurately ripped
 11     [e3135047] (002/179) Accurately ripped
 12     [6133e834] (002/180) Accurately ripped
 13     [9090fd88] (002/182) Accurately ripped
 14     [6a6743a4] (002/183) Accurately ripped
 15     [c68e48e4] (002/181) Accurately ripped
 16     [bcceb1b8] (000/177) No match (V2 was not tested)
 17     [e734d98e] (000/179) No match (V2 was not tested)
 18     [a4654ec3] (002/174) Accurately ripped

Track Peak [ CRC32  ] [W/O NULL] [  LOG   ]
 --  100.0 [7AE85092] [CB1EB1D0]   CRC32   
 01   87.4 [0CA37546] [054D6BB6]           
 02   99.1 [F2CCA45A] [213F1D92]           
 03   94.9 [68812E7A] [FDABA11A]           
 04   95.7 [220866D9] [0620F57A]           
 05   96.9 [3E1E5B5D] [8115A534]           
 06   77.3 [3A3389D5] [81598AE4]           
 07  100.0 [A57D1ED9] [1FA71F37]           
 08   99.3 [D1007962] [D7CB553A]           
 09   79.4 [D940520E] [481030E4]           
 10   94.1 [7996E651] [ADAA8F2C]           
 11   79.4 [61487386] [BE271452]           
 12   79.4 [652374C2] [2B01E409]           
 13   76.0 [5B064CFB] [B4C02C7D]           
 14  100.0 [8EAD794D] [51BB2E2D]           
 15   84.1 [37A0F844] [4FD587E8]           
 16   87.4 [B3DBCDE7] [444CB132]           
 17   69.0 [CF6AEB2D] [5440ED5C]           
 18   59.1 [E196CAD3] [5459F464]           



Create a new paste based on this one


Comments: