[ create a new paste ] login | about

Link: http://codepad.org/KtExWcf9    [ raw code | fork ]

Plain Text, pasted on Mar 1:
foobar2000 1.3.10 / Dynamic Range Meter 1.1.1
log date: 2017-02-28 17:28:08

--------------------------------------------------------------------------------
Analyzed: JANIS JOPLIN/FULL TILT BOOGIE / Pearl
--------------------------------------------------------------------------------

DR         Peak         RMS     Duration Track
--------------------------------------------------------------------------------
DR10      -6.49 dB   -18.81 dB      3:42 01-Move Over
DR10      -7.79 dB   -21.24 dB      3:59 02-Cry Baby
DR10      -7.45 dB   -21.05 dB      3:30 03-A Woman Left Lonely
DR10      -7.82 dB   -20.80 dB      3:53 04-Half Moon
DR10      -8.37 dB   -20.54 dB      2:23 05-Buried Alive In The Blues
DR11      -7.56 dB   -20.69 dB      3:45 06-My Baby
DR10      -7.42 dB   -19.94 dB      4:30 07-Me & Bobby McGee
DR10     -12.32 dB   -25.31 dB      1:47 08-Mercedes Benz
DR11      -6.75 dB   -19.78 dB      3:17 09-Trust Me
DR10      -6.32 dB   -18.93 dB      3:24 10-Get It While You Can
--------------------------------------------------------------------------------

Number of tracks:  10
Official DR value: DR10

Samplerate:        2822400 Hz / PCM Samplerate: 88200 Hz
Channels:          2
Bits per sample:   24
Bitrate:           5645 kbps
Codec:             DSD64
================================================================================




Create a new paste based on this one


Comments: