[ create a new paste ] login | about

Link: http://codepad.org/KvtTieeN    [ raw code | fork ]

Plain Text, pasted on Mar 7:
Exact Audio Copy V1.0 beta 3 from 29. August 2011

EAC extraction logfile from 13. November 2014, 20:44

Rory Gallagher / Irish Tour '74.. CD1 (2014, Cork City Hall, 3 & 5 January 1974)

Used drive : ATAPI iHAS124 B Adapter: 1 ID: 0

Read mode : Secure
Utilize accurate stream : Yes
Defeat audio cache : Yes
Make use of C2 pointers : No

Read offset correction : 6
Overread into Lead-In and Lead-Out : No
Fill up missing offset samples with silence : Yes
Delete leading and trailing silent blocks : No
Null samples used in CRC calculations : Yes
Used interface : Installed external ASPI interface

Used output format : User Defined Encoder
Selected bitrate : 128 kBit/s
Quality : High
Add ID3 tag : Yes
Command line compressor : C:\Program Files (x86)\Exact Audio Copy\Flac\flac.exe
Additional command line options : -V -8 -T "Date=%year%" -T "Genre=%genre%" %source%


TOC of the extracted CD

Track | Start | Length | Start sector | End sector
––––––––––––––––––––––––––––-
1 | 0:00.00 | 6:43.51 | 0 | 30275
2 | 6:43.51 | 7:16.33 | 30276 | 63008
3 | 14:00.09 | 7:48.54 | 63009 | 98162
4 | 21:48.63 | 5:08.36 | 98163 | 121298
5 | 26:57.24 | 10:46.14 | 121299 | 169762
6 | 37:43.38 | 8:06.26 | 169763 | 206238
7 | 45:49.64 | 9:18.31 | 206239 | 248119
8 | 55:08.20 | 11:11.40 | 248120 | 298484
9 | 66:19.60 | 7:46.70 | 298485 | 333504


Range status and errors

Selected range

Filename G:\CD\Rory Gallagher - Irish Tour '74.. CD1.wav

Peak level 97.0 %
Extraction speed 6.4 X
Range quality 100.0 %
Test CRC E389B107
Copy CRC E389B107
Copy OK

No errors occurred


AccurateRip summary

Track 1 accurately ripped (confidence 3) [E5141A76] (AR v2)
Track 2 accurately ripped (confidence 3) [6E333452] (AR v2)
Track 3 accurately ripped (confidence 3) [8B5ED878] (AR v2)
Track 4 accurately ripped (confidence 3) [EAF1CD91] (AR v2)
Track 5 accurately ripped (confidence 3) [B7D998FB] (AR v2)
Track 6 accurately ripped (confidence 3) [7E7D5362] (AR v2)
Track 7 accurately ripped (confidence 3) [D8BA6616] (AR v2)
Track 8 accurately ripped (confidence 3) [F78C693F] (AR v2)
Track 9 accurately ripped (confidence 3) [A299E669] (AR v2)

All tracks accurately ripped

End of status report

–– CUETools DB Plugin V2.1.3

[CTDB TOCID: 9d_CzCOjTqCi5Xj1Ao0.4VZtrWI-] found, Submit result: 9d_CzCOjTqCi5Xj1Ao0.4VZtrWI- has been confirmed
[9de5da8a] (5/5) Accurately ripped


==== Log checksum 75917E381D62857174148E38A910385FB31DDDBB5ADA75FFE24C8DE119A7A200 ====


Create a new paste based on this one


Comments: