[ create a new paste ] login | about

Link: http://codepad.org/KwHU4L5f    [ raw code | fork ]

Plain Text, pasted on Oct 29:
foobar2000 1.6 / Dynamic Range Meter 1.1.1
log date: 2020-10-29 05:53:16

--------------------------------------------------------------------------------
Analyzed: B.W. Stevenson / My Maria & Calabasas 
--------------------------------------------------------------------------------

DR         Peak         RMS     Duration Track
--------------------------------------------------------------------------------
DR13      -0.11 dB   -15.52 dB      2:33 01-My Maria 
DR13      -0.70 dB   -16.30 dB      2:39 02-Be My Woman Tonight 
DR12      -2.95 dB   -17.65 dB      3:38 03-Sunset Woman 
DR12      -1.82 dB   -16.32 dB      2:33 04-A Good Love Is Like a Good Song 
DR13      -1.24 dB   -15.78 dB      2:57 05-Grab On Hold of My Soul 
DR13      -0.02 dB   -16.08 dB      2:34 06-Shambala 
DR12      -2.78 dB   -16.96 dB      3:21 07-Lucky Touch 
DR14      -0.63 dB   -16.54 dB      3:06 08-I Got to Boogie 
DR12      -4.43 dB   -19.70 dB      3:55 09-Remember Me 
DR13      -5.81 dB   -23.54 dB      1:42 10-Pass This Way 
DR12      -0.02 dB   -16.18 dB      3:14 11-Look for the Light 
DR12      -1.69 dB   -15.55 dB      2:49 12-Little Bit of Understanding 
DR12      -3.27 dB   -18.25 dB      2:34 13-We Had It All 
DR12      -1.65 dB   -15.35 dB      3:45 14-Livin It Day by Day
DR11      -2.94 dB   -15.44 dB      3:09 15-Dry Land 
DR12      -2.83 dB   -16.12 dB      2:37 16-Anna Lisa
DR13      -1.13 dB   -17.41 dB      4:01 17-Please Come to Boston 
DR11      -2.94 dB   -15.91 dB      3:07 18-Roll On 
DR12      -3.69 dB   -18.99 dB      2:55 19-Song for Katy 
DR12      -2.18 dB   -17.85 dB      3:59 20-Here We Go Again 
--------------------------------------------------------------------------------

Number of tracks:  20
Official DR value: DR12

Samplerate:        88200 Hz
Channels:          2
Bits per sample:   24
Bitrate:           2675 kbps
Codec:             FLAC
================================================================================




Create a new paste based on this one


Comments: