[ create a new paste ] login | about

Link: http://codepad.org/L0u9hxDB    [ raw code | fork ]

Plain Text, pasted on May 6:
Exact Audio Copy V1.0 beta 6 from 9. April 2015

EAC extraction logfile from 4. May 2019, 8:48

The Rolling Stones / Demos & Outtakes 1963-1966 [Disc Two]

Used drive  : ATAPI   iHAS122   C   Adapter: 1  ID: 0

Read mode               : Secure
Utilize accurate stream : Yes
Defeat audio cache      : Yes
Make use of C2 pointers : No

Read offset correction                      : 6
Overread into Lead-In and Lead-Out          : No
Fill up missing offset samples with silence : Yes
Delete leading and trailing silent blocks   : No
Null samples used in CRC calculations       : Yes
Used interface                              : Native Win32 interface for Win NT & 2000

Used output format : Internal WAV Routines
Sample format      : 44.100 Hz; 16 Bit; Stereo


TOC of the extracted CD

     Track |   Start  |  Length  | Start sector | End sector 
    ---------------------------------------------------------
        1  |  0:00.00 |  2:51.66 |         0    |    12890   
        2  |  2:51.66 |  2:45.70 |     12891    |    25335   
        3  |  5:37.61 |  2:01.18 |     25336    |    34428   
        4  |  7:39.04 |  1:51.17 |     34429    |    42770   
        5  |  9:30.21 |  2:55.56 |     42771    |    55951   
        6  | 12:26.02 |  2:07.37 |     55952    |    65513   
        7  | 14:33.39 |  2:41.58 |     65514    |    77646   
        8  | 17:15.22 |  3:18.01 |     77647    |    92497   
        9  | 20:33.23 |  2:08.72 |     92498    |   102169   
       10  | 22:42.20 |  2:55.43 |    102170    |   115337   
       11  | 25:37.63 |  2:15.28 |    115338    |   125490   
       12  | 27:53.16 |  3:50.36 |    125491    |   142776   
       13  | 31:43.52 |  2:56.40 |    142777    |   156016   
       14  | 34:40.17 |  3:20.35 |    156017    |   171051   
       15  | 38:00.52 |  2:29.69 |    171052    |   182295   
       16  | 40:30.46 |  2:46.62 |    182296    |   194807   
       17  | 43:17.33 |  2:27.74 |    194808    |   205906   
       18  | 45:45.32 |  3:15.56 |    205907    |   220587   
       19  | 49:01.13 |  2:04.72 |    220588    |   229959   
       20  | 51:06.10 |  2:04.38 |    229960    |   239297   
       21  | 53:10.48 |  3:05.47 |    239298    |   253219   


Range status and errors

Selected range

     Filename C:\The Rolling Stones - Demos & Outtakes 1963-1966 [Disc Two].wav

     Peak level 96.6 %
     Extraction speed 3.2 X
     Range quality 100.0 %
     Test CRC 6A160F61
     Copy CRC 6A160F61
     Copy OK

No errors occurred

 
AccurateRip summary
 
Track  1  not present in database
Track  2  not present in database
Track  3  not present in database
Track  4  not present in database
Track  5  not present in database
Track  6  not present in database
Track  7  not present in database
Track  8  not present in database
Track  9  not present in database
Track 10  not present in database
Track 11  not present in database
Track 12  not present in database
Track 13  not present in database
Track 14  not present in database
Track 15  not present in database
Track 16  not present in database
Track 17  not present in database
Track 18  not present in database
Track 19  not present in database
Track 20  not present in database
Track 21  not present in database
 
None of the tracks are present in the AccurateRip database

End of status report

---- CUETools DB Plugin V2.1.6

[CTDB TOCID: WoN1rlElPWNHzZ5MEy.QvmRwSXA-] found
Submit result: already submitted
Track | CTDB Status
  1   | (1/1) Accurately ripped
  2   | (1/1) Accurately ripped
  3   | (1/1) Accurately ripped
  4   | (1/1) Accurately ripped
  5   | (1/1) Accurately ripped
  6   | (1/1) Accurately ripped
  7   | (1/1) Accurately ripped
  8   | (1/1) Accurately ripped
  9   | (1/1) Accurately ripped
 10   | (1/1) Accurately ripped
 11   | (1/1) Accurately ripped
 12   | (1/1) Accurately ripped
 13   | (1/1) Accurately ripped
 14   | (1/1) Accurately ripped
 15   | (1/1) Accurately ripped
 16   | (1/1) Accurately ripped
 17   | (1/1) Accurately ripped
 18   | (1/1) Accurately ripped
 19   | (1/1) Accurately ripped
 20   | (1/1) Accurately ripped
 21   | (1/1) Accurately ripped


==== Log checksum 763C99E1FBE313CCD7626EAB85B99FABE9C0FD359F49B7E213BD65B04C30EFD0 ====



Create a new paste based on this one


Comments: