[ create a new paste ] login | about

Link: http://codepad.org/L4D59MbH    [ raw code | fork ]

Plain Text, pasted on Dec 11:
Exact Audio Copy V1.0 beta 1 from 15. November 2010

EAC extraction logfile from 12. June 2011, 2:57

Metallica / Master Of Puppets (GZS-1133, 24k DCC Gold Disc)

Used drive  : PLEXTOR DVDR   PX-760A   Adapter: 0  ID: 0

Read mode               : Secure
Utilize accurate stream : Yes
Defeat audio cache      : Yes
Make use of C2 pointers : No

Read offset correction                      : 30
Overread into Lead-In and Lead-Out          : No
Fill up missing offset samples with silence : Yes
Delete leading and trailing silent blocks   : No
Null samples used in CRC calculations       : Yes
Used interface                              : Native Win32 interface for Win NT & 2000

Used output format              : User Defined Encoder
Selected bitrate                : 1024 kBit/s
Quality                         : High
Add ID3 tag                     : No
Command line compressor         : C:\Program Files (x86)\Exact Audio Copy\Flac\flac.exe
Additional command line options : -T "DATE=%y" -T "GENRE=%m" -8 -V %s


TOC of the extracted CD

     Track |   Start  |  Length  | Start sector | End sector 
    ---------------------------------------------------------
        1  |  0:00.32 |  5:14.15 |        32    |    23596   
        2  |  5:14.47 |  8:38.25 |     23597    |    62471   
        3  | 13:52.72 |  6:38.63 |     62472    |    92384   
        4  | 20:31.60 |  6:29.67 |     92385    |   121626   
        5  | 27:01.52 |  8:17.53 |    121627    |   158954   
        6  | 35:19.30 |  5:43.65 |    158955    |   184744   
        7  | 41:03.20 |  8:29.00 |    184745    |   222919   
        8  | 49:32.20 |  5:30.00 |    222920    |   247669   


Range status and errors

Selected range

     Filename D:\bki71\Metallica\Studio Albums\1986 - Master Of Puppets\Metallica - Master Of Puppets (GZS-1133, 24k DCC Gold Disc).wav

     Peak level 100.0 %
     Extraction speed 0.7 X
     Range quality 100.0 %
     Test CRC CF4BCE57
     Copy CRC CF4BCE57
     Copy OK

No errors occurred

 
AccurateRip summary
 
Track  1  accurately ripped (confidence 29)  [5E1BD7D5]
Track  2  accurately ripped (confidence 27)  [199A5EB9]
Track  3  accurately ripped (confidence 27)  [7F4A10FD]
Track  4  accurately ripped (confidence 27)  [361508CF]
Track  5  accurately ripped (confidence 27)  [D97124C6]
Track  6  accurately ripped (confidence 27)  [4EC3D31E]
Track  7  accurately ripped (confidence 27)  [BAE23F61]
Track  8  accurately ripped (confidence 27)  [4ABDD91C]
 
All tracks accurately ripped

End of status report

==== Log checksum D5A5C6CF9E3E7E1325FA514C0A998CBA2F821CDD88E35406BF21F97DBCF48D82 ====



Create a new paste based on this one


Comments: