[ create a new paste ] login | about

Link: http://codepad.org/LDTLdf1u    [ raw code | fork ]

Plain Text, pasted on Jul 24:
foobar2000 1.5 / Dynamic Range Meter 1.1.1
log date: 2020-07-24 20:11:14

--------------------------------------------------------------------------------
Analyzed: VANILLA FUDGE / Vanilla Fudge
--------------------------------------------------------------------------------

DR         Peak         RMS     Duration Track
--------------------------------------------------------------------------------
DR10      -1.31 dB   -13.68 dB      6:18 01-Ticket To Ride
DR10      -2.73 dB   -17.31 dB      6:33 02-People Get Ready
DR9       -1.28 dB   -13.51 dB      5:00 03-She's Not There
DR10      -1.34 dB   -16.75 dB      6:27 04-Bang Bang
DR13      -9.08 dB   -24.99 dB      0:28 05-Illusions Of My Childhood - Part One
DR10      -1.42 dB   -13.32 dB      6:43 06-You Keep Me Hanging On
DR10     -16.51 dB   -29.56 dB      0:16 07-Illusions Of My Childhood - Part Two
DR10      -1.25 dB   -14.03 dB      3:19 08-Take Me For A Little While
DR10      -7.54 dB   -20.44 dB      0:24 09-Illusions Of My Childhood - Part Three
DR11      -0.36 dB   -17.09 dB      8:25 10-Eleanor Rigby
--------------------------------------------------------------------------------

Number of tracks:  10
Official DR value: DR10

Samplerate:        88200 Hz
Channels:          2
Bits per sample:   24
Bitrate:           1475 kbps
Codec:             FLAC
================================================================================




Create a new paste based on this one


Comments: