[ create a new paste ] login | about

Link: http://codepad.org/LDsS3hAL    [ raw code | fork ]

Plain Text, pasted on May 8:
foobar2000 1.4.1 / Dynamic Range Meter 1.1.1
log date: 2019-05-07 18:57:46

--------------------------------------------------------------------------------
Analyzed: ? / ?
--------------------------------------------------------------------------------

DR         Peak         RMS     Duration Track
--------------------------------------------------------------------------------
DR16      -3.74 dB   -23.93 dB      8:12 01-Well You Needn't
DR14      -6.42 dB   -25.30 dB      7:38 02-Fran-Dance
DR14      -5.26 dB   -23.02 dB     12:41 03-So What
DR15      -4.06 dB   -24.43 dB      7:06 04-Oleo
DR16      -5.01 dB   -24.60 dB     12:36 05-If I Were A Bell
DR16      -5.14 dB   -23.79 dB     12:39 06-Neo
--------------------------------------------------------------------------------

Number of tracks:  6
Official DR value: DR15

Samplerate:        2822400 Hz / PCM Samplerate: 176400 Hz
Channels:          2
Bits per sample:   1
Bitrate:           5645 kbps
Codec:             DSD64
================================================================================




Create a new paste based on this one


Comments: