[ create a new paste ] login | about

Link: http://codepad.org/LEJqpS1r    [ raw code | fork ]

Plain Text, pasted on Sep 18:
foobar2000 1.3.17 / Dynamic Range Meter 1.1.1
log date: 2018-09-18 09:29:03

--------------------------------------------------------------------------------
Analyzed: Roger Waters / Is This the Life We Really Want?
--------------------------------------------------------------------------------

DR         Peak         RMS     Duration Track
--------------------------------------------------------------------------------
DR11      -8.83 dB   -24.61 dB      1:40 01-When We Were Young
DR12      -2.01 dB   -17.44 dB      4:28 02-Deja Vu
DR12      -2.14 dB   -18.78 dB      4:15 03-The Last Refugee
DR10      -1.40 dB   -15.89 dB      6:49 04-Picture That
DR11      -1.57 dB   -18.90 dB      4:59 05-Broken Bones
DR13      -2.83 dB   -19.88 dB      6:07 06-Is This The Life We Really Want
DR10      -2.46 dB   -16.80 dB      5:31 07-Bird In A Gale
DR11      -3.91 dB   -18.11 dB      6:09 08-The Most Beautiful Girl In The World
DR10      -2.33 dB   -14.95 dB      5:17 09-Smell The Roses
DR12      -3.45 dB   -18.77 dB      4:57 10-Wait For Her
DR13      -5.36 dB   -21.53 dB      1:06 11-Oceans Apart
DR12      -2.91 dB   -19.24 dB      3:16 12-A Part Of Me Died
--------------------------------------------------------------------------------

Number of tracks:  12
Official DR value: DR11

Samplerate:        44100 Hz
Channels:          2
Bits per sample:   16
Bitrate:           669 kbps
Codec:             FLAC
================================================================================




Create a new paste based on this one


Comments: