[ create a new paste ] login | about

Link: http://codepad.org/LIharYLh    [ raw code | fork ]

Plain Text, pasted on Aug 18:
[CUETools log; Date: 8/13/2020 7:14:37 PM; Version: 2.1.7]
[CTDB TOCID: 1YME_8jvkvDMgbM7jcwno2ouSFg-] found.
Track | CTDB Status
  1   | (156/156) Accurately ripped
  2   | (156/156) Accurately ripped
  3   | (156/156) Accurately ripped
  4   | (156/156) Accurately ripped
  5   | (156/156) Accurately ripped
  6   | (156/156) Accurately ripped
  7   | (156/156) Accurately ripped
  8   | (155/156) Accurately ripped
  9   | (156/156) Accurately ripped
 10   | (156/156) Accurately ripped
 11   | (156/156) Accurately ripped
 12   | (155/156) Accurately ripped
 13   | (155/156) Accurately ripped
[AccurateRip ID: 0018e3fa-00f8eb71-af0c1a0d] found.
Track   [  CRC   |   V2   ] Status
 01     [bc4775cd|a4c232b3] (0+2/2) Accurately ripped
 02     [f514162b|f8befbe5] (0+2/2) Accurately ripped
 03     [649a507d|4536d582] (0+2/2) Accurately ripped
 04     [b7a370b4|6ea8bf91] (0+2/2) Accurately ripped
 05     [2413b1d4|32cebd4f] (0+2/2) Accurately ripped
 06     [51808dab|1cbfcf54] (0+2/2) Accurately ripped
 07     [6c2aae4b|a99a7538] (0+2/2) Accurately ripped
 08     [78ed4146|166bfe37] (0+2/2) Accurately ripped
 09     [eea46b38|6533dbba] (0+2/2) Accurately ripped
 10     [e6d532e2|89c28ec0] (0+2/2) Accurately ripped
 11     [fa6b86c2|bbfb76dc] (0+2/2) Accurately ripped
 12     [cf9ac35d|46186247] (0+2/2) Accurately ripped
 13     [6bf8e497|0cda29ba] (0+2/2) Accurately ripped

Track Peak [ CRC32  ] [W/O NULL] [  LOG   ]
 --   99.7 [D27A11DA] [98D553D9]   CRC32   
 01   99.7 [19CB785C] [509333A9]           
 02   99.7 [FA767219] [18264338]           
 03   99.7 [FBAF4643] [C9880BE6]           
 04   99.7 [A5AA32B3] [70C67108]           
 05   99.7 [4591DFCA] [AEE83021]           
 06   99.7 [9303CB35] [A939DD7C]           
 07   99.7 [D8F89007] [4052A216]           
 08   99.7 [16086034] [F8A872BF]           
 09   99.7 [573C50DB] [EAF5CCC3]           
 10   98.8 [7C3CDD3B] [02CCFB0D]           
 11   98.8 [508E5DD7] [42B3577E]           
 12   99.7 [99FD9A5A] [E994C3C1]           
 13   99.7 [533380EE] [4CB4DC31]           



Create a new paste based on this one


Comments: