[ create a new paste ] login | about

Link: http://codepad.org/LSZjkBfm    [ raw code | fork ]

Plain Text, pasted on Oct 9:
foobar2000 1.4.6 / Dynamic Range Meter 1.1.1
log date: 2019-10-09 10:37:14

--------------------------------------------------------------------------------
Analyzed: Whitesnake / Slip Of The Tongue (Super Deluxe Edition, 2019 Remaster)
--------------------------------------------------------------------------------

DR         Peak         RMS     Duration Track
--------------------------------------------------------------------------------
DR7       -0.65 dB    -9.46 dB      5:21 01-Slip Of The Tongue (2019 Remaster)
DR7       -0.76 dB    -8.79 dB      4:46 02-Kittens Got Claws (2019 Remaster)
DR8       -0.76 dB    -9.94 dB      3:28 03-Cheap An' Nasty (2019 Remaster)
DR8       -0.58 dB   -10.28 dB      4:10 04-Now You're Gone (2019 Remaster)
DR7       -0.79 dB    -9.32 dB      4:20 05-The Deeper The Love (2019 Remaster)
DR7       -0.83 dB    -9.87 dB      5:16 06-Judgment Day (2019 Remaster)
DR7       -0.76 dB   -10.80 dB      5:59 07-Sailing Ships (2019 Remaster)
DR7       -0.76 dB    -9.19 dB      5:01 08-Wings Of The Storm (2019 Remaster)
DR8       -0.72 dB   -10.10 dB      3:58 09-Slow Poke Music (2019 Remaster)
DR6       -0.74 dB    -7.81 dB      4:10 10-Fool For Your Loving (2019 Remaster)
DR7       -0.54 dB    -8.89 dB      4:34 11-Sweet Lady Luck (Single B-Side) (2019 Remaster)
DR8       -0.23 dB    -9.83 dB      4:07 12-Now You're Gone (Chris Lord-Alge Single Remix) (2019 Remaster)
DR7       -0.41 dB    -8.96 dB      4:18 13-Fool For Your Loving (Vai Voltage Mix) (2019 Remaster)
DR7       -0.75 dB    -8.86 dB      4:53 14-Slip Of The Tongue (Alternate Intro & Breakdown) (2019 Remaster)
DR8       -0.75 dB   -10.65 dB      3:35 15-Cheap An' Nasty (Alternate Solo & End) (2019 Remaster)
DR8       -0.73 dB   -10.30 dB      5:31 16-Judgment Day (Alternate & Extended Solos) (2019 Remaster)
DR7       -0.74 dB    -8.89 dB      4:11 17-Fool For Your Loving (Alternate AOR Mix With CHR Intro) (2019 Remaster)
DR13      -0.23 dB   -15.49 dB      1:24 18-Slip Of The Tongue Interview (The Wagging Tongue Edition, 2019 Remaster)
DR7       -0.65 dB    -9.29 dB      5:09 19-Slip Of The Tongue (The Wagging Tongue Edition, 2019 Remaster)
DR12      -0.23 dB   -15.03 dB      1:57 20-Cheap An' Nasty Interview (The Wagging Tongue Edition, 2019 Remaster)
DR8       -0.76 dB    -9.85 dB      3:22 21-Cheap An' Nasty (The Wagging Tongue Edition, 2019 Remaster)
DR13      -0.23 dB   -15.25 dB      2:50 22-Fool For Your Loving Interview (The Wagging Tongue Edition, 2019 Remaster)
DR7       -0.70 dB    -9.00 dB      4:08 23-Fool For Your Loving (The Wagging Tongue Edition, 2019 Remaster)
DR12      -0.25 dB   -15.37 dB      2:13 24-Now You're Gone Interview (The Wagging Tongue Edition, 2019 Remaster)
DR8       -0.58 dB   -10.18 dB      4:05 25-Now You're Gone (The Wagging Tongue Edition, 2019 Remaster)
DR12      -0.23 dB   -14.61 dB      2:06 26-Kittens Got Claws Interview (The Wagging Tongue Edition, 2019 Remaster)
DR7       -0.76 dB    -8.96 dB      4:58 27-Kittens Got Claws (The Wagging Tongue Edition, 2019 Remaster)
DR13      -0.23 dB   -15.40 dB      1:57 28-Wings Of The Storm Interview (The Wagging Tongue Edition, 2019 Remaster)
DR7       -0.76 dB    -9.15 dB      4:59 29-Wings Of The Storm (The Wagging Tongue Edition, 2019 Remaster)
DR13      -0.23 dB   -15.94 dB      1:26 30-The Deeper The Love Interview (The Wagging Tongue Edition, 2019 Remaster)
DR7       -0.76 dB    -9.32 dB      4:21 31-The Deeper The Love (The Wagging Tongue Edition, 2019 Remaster)
DR13      -0.40 dB   -15.24 dB      1:37 32-Judgment Day Interview (The Wagging Tongue Edition, 2019 Remaster)
DR7       -0.84 dB    -9.84 dB      5:14 33-Judgment Day (The Wagging Tongue Edition, 2019 Remaster)
DR13      -0.23 dB   -15.37 dB      2:37 34-Slow Poke Music Interview (The Wagging Tongue Edition, 2019 Remaster)
DR8       -0.72 dB   -10.10 dB      3:58 35-Slow Poke Music (The Wagging Tongue Edition, 2019 Remaster)
DR13      -0.28 dB   -16.71 dB      2:01 36-Sailing Ships Interview (The Wagging Tongue Edition, 2019 Remaster)
DR7       -0.76 dB   -10.80 dB      5:58 37-Sailing Ships (The Wagging Tongue Edition, 2019 Remaster)
DR14      -0.23 dB   -15.92 dB      1:58 38-Closing Interview (The Wagging Tongue Edition, 2019 Remaster)
DR8       -0.50 dB    -9.45 dB      6:58 39-Slip Of The Tongue (Evolutions: Demos/Remixes/Re-records)
DR9       -0.50 dB   -11.73 dB      5:48 40-Cheap An' Nasty (Evolutions: Demos/Remixes/Re-records)
DR10      -0.45 dB   -12.56 dB      6:01 41-Now You're Gone (Evolutions: Demos/Remixes/Re-records)
DR8       -0.50 dB   -10.74 dB      6:25 42-Judgment Day (Evolutions: Demos/Remixes/Re-records)
DR8       -0.50 dB   -12.34 dB      8:31 43-Sailing Ships (Evolutions: Demos/Remixes/Re-records)
DR7       -0.50 dB    -9.32 dB      6:28 44-Kittens Got Claws (Evolutions: Demos/Remixes/Re-records)
DR8       -0.50 dB   -10.59 dB      6:33 45-The Deeper The Love (Evolutions: Demos/Remixes/Re-records)
DR7       -0.50 dB    -9.53 dB      4:48 46-Wings Of The Storm (Evolutions: Demos/Remixes/Re-records)
DR8       -0.50 dB    -9.83 dB      5:07 47-Slow Poke Music (Evolutions: Demos/Remixes/Re-records)
DR7       -0.50 dB    -9.00 dB      4:27 48-Fool For Your Loving (Evolutions: Demos/Remixes/Re-records)
DR7       -0.50 dB    -9.17 dB      5:46 49-Kill for the Cut (Evolutions: Demos/Remixes/Re-records)
DR6       -0.50 dB    -7.40 dB      4:57 50-Parking Ticket (Evolutions: Demos/Remixes/Re-records)
DR7       -0.50 dB    -9.16 dB      3:20 51-Sweet Lady Luck (Instrumental) (Evolutions: Demos/Remixes/Re-records)
DR9       -0.28 dB    -9.86 dB      4:57 52-Kittens Got Claws (Monitor Mixes, April 1989)
DR9       -0.28 dB   -10.33 dB      3:29 53-Cheap An' Nasty (Monitor Mixes, April 1989)
DR8       -0.30 dB   -10.06 dB      4:38 54-The Deeper The Love (Monitor Mixes, April 1989)
DR9       -0.28 dB   -10.35 dB      5:52 55-Judgment Day (Monitor Mixes, April 1989)
DR9       -0.27 dB   -10.27 dB      4:01 56-Slow Poke Music (Monitor Mixes, April 1989)
DR8       -0.27 dB   -10.38 dB      4:10 57-Now You're Gone (Monitor Mixes, April 1989)
DR7       -0.29 dB    -8.86 dB      5:25 58-Slip Of The Tongue (Monitor Mixes, April 1989)
DR7       -0.28 dB    -8.46 dB      4:15 59-Fool For Your Loving (Monitor Mixes, April 1989)
DR8       -0.27 dB    -9.67 dB      4:56 60-Wings Of The Storm (Monitor Mixes, April 1989)
DR9       -0.29 dB   -12.33 dB      6:09 61-Sailing Ships (Monitor Mixes, April 1989)
DR8       -0.28 dB    -9.11 dB      4:33 62-Sweet Lady Luck (Monitor Mixes, April 1989)
DR8       -0.28 dB    -9.34 dB      3:37 63-Parking Ticket (Monitor Mixes, April 1989)
DR8       -0.30 dB    -9.09 dB      4:35 64-Kill For The Cut (In Desperate Search Of A Melody) (Monitor Mixes, April 1989)
DR10      -0.28 dB   -12.94 dB      4:31 65-Burning Heart (Monitor Mixes, April 1989)
DR9       -0.28 dB   -10.47 dB      4:41 66-Ain't Gonna Cry No More (Instrumental) (Monitor Mixes, April 1989)
DR9       -0.27 dB   -12.77 dB      1:36 67-We Wish You Well (Monitor Mixes, April 1989)
DR9       -0.22 dB   -10.79 dB      4:22 68-Slow Poke Music (A Trip To Granny's House: Sessions Tapes, Wheezy Interludes & Jams)
DR9       -0.23 dB   -10.62 dB      5:19 69-Slip Of The Tongue (A Trip To Granny's House: Sessions Tapes, Wheezy Interludes & Jams)
DR9       -0.23 dB   -12.15 dB      6:02 70-Judgment Day (A Trip To Granny's House: Sessions Tapes, Wheezy Interludes & Jams)
DR8       -0.22 dB    -9.91 dB      4:41 71-Now You're Gone (A Trip To Granny's House: Sessions Tapes, Wheezy Interludes & Jams)
DR10      -0.23 dB   -11.61 dB      5:38 72-Wings Of The Storm (A Trip To Granny's House: Sessions Tapes, Wheezy Interludes & Jams)
DR10      -0.22 dB   -13.92 dB      7:01 73-Sailing Ships (A Trip To Granny's House: Sessions Tapes, Wheezy Interludes & Jams)
DR9       -0.23 dB   -10.58 dB      4:37 74-Liquor And Poker (A Trip To Granny's House: Sessions Tapes, Wheezy Interludes & Jams)
DR10      -0.23 dB   -11.49 dB      4:28 75-Parking Ticket (A Trip To Granny's House: Sessions Tapes, Wheezy Interludes & Jams)
DR10      -0.22 dB   -11.11 dB      5:04 76-Kill For The Cut (A Trip To Granny's House: Sessions Tapes, Wheezy Interludes & Jams)
DR11      -0.23 dB   -13.27 dB      1:08 77-Ain't Gonna Cry No More (A Trip To Granny's House: Sessions Tapes, Wheezy Interludes & Jams)
DR11      -1.19 dB   -16.90 dB      1:52 78-We Wish You Well (A Trip To Granny's House: Sessions Tapes, Wheezy Interludes & Jams)
DR12      -0.78 dB   -16.18 dB      1:24 79-We Wish You Well (Instrumental) (A Trip To Granny's House: Sessions Tapes, Wheezy Interludes & Jams)
DR13      -0.23 dB   -17.62 dB      4:34 80-Wheezy & Sometimes Very Naughty Interludes (Be Warned!) (A Trip To Granny's House: Sessions Tapes, Wheezy Interludes & Jams)
DR13      -0.23 dB   -16.26 dB      2:55 81-Now You're Gone (Revisited) (A Trip To Granny's House: Sessions Tapes, Wheezy Interludes & Jams)
DR12      -0.23 dB   -14.60 dB      1:35 82-Death Disco (A Trip To Granny's House: Sessions Tapes, Wheezy Interludes & Jams)
DR11      -0.24 dB   -12.47 dB      2:20 83-Whitesnake Boogie (A Trip To Granny's House: Sessions Tapes, Wheezy Interludes & Jams)
DR13      -0.23 dB   -17.01 dB      1:24 84-Mike Clink's Shoes Blues (A Trip To Granny's House: Sessions Tapes, Wheezy Interludes & Jams)
DR12      -0.23 dB   -14.07 dB      0:39 85-Snake Shuffle (Instrumental) (A Trip To Granny's House: Sessions Tapes, Wheezy Interludes & Jams)
DR15      -0.23 dB   -16.50 dB      1:05 86-Doodles (A Trip To Granny's House: Sessions Tapes, Wheezy Interludes & Jams)
DR13      -0.23 dB   -16.08 dB      0:40 87-Dementia Polka (A Trip To Granny's House: Sessions Tapes, Wheezy Interludes & Jams)
DR11      -0.22 dB   -12.64 dB      2:47 88-Kill For The Cut Blues (A Trip To Granny's House: Sessions Tapes, Wheezy Interludes & Jams)
DR12      -0.24 dB   -15.81 dB      2:11 89-Cuban Heel Blues (A Trip To Granny's House: Sessions Tapes, Wheezy Interludes & Jams)
DR13      -0.23 dB   -15.29 dB      2:58 90-Adje's Blues (A Trip To Granny's House: Sessions Tapes, Wheezy Interludes & Jams)
DR7       -0.11 dB    -8.53 dB      6:47 91-Slip Of The Tongue (Live At Donington 1990, 2019 Remaster)
DR7       -0.05 dB    -7.95 dB      5:03 92-Slide It In (Live At Donington 1990, 2019 Remaster)
DR7       -0.13 dB    -8.36 dB      5:56 93-Judgment Day (Live At Donington 1990, 2019 Remaster)
DR7       -0.11 dB    -8.69 dB      7:40 94-Slow An' Easy (Live At Donington 1990, 2019 Remaster)
DR7       -0.14 dB    -8.02 dB      4:59 95-Kittens Got Claws (Live At Donington 1990, 2019 Remaster)
DR8       -0.17 dB    -8.99 dB      4:46 96-Is This Love (Live At Donington 1990, 2019 Remaster)
DR7       -0.05 dB    -8.24 dB      4:28 97-Cheap An' Nasty (Live At Donington 1990, 2019 Remaster)
DR7       -0.16 dB    -8.31 dB      8:02 98-Crying In The Rain (Live At Donington 1990, 2019 Remaster)
DR7       -0.11 dB    -7.97 dB      5:25 99-Fool For Your Loving (Live At Donington 1990, 2019 Remaster)
DR7       -0.21 dB    -8.76 dB      5:11 100-Here I Go Again (Live At Donington 1990, 2019 Remaster)
DR7       -0.13 dB    -7.78 dB      6:18 101-Bad Boys (Live At Donington 1990, 2019 Remaster)
DR7       -0.18 dB    -9.65 dB      5:57 102-Ain't No Love In The Heart Of The City (Live At Donington 1990, 2019 Remaster)
DR7       -0.05 dB    -8.02 dB      7:59 103-Still Of The Night (Live At Donington 1990, 2019 Remaster)
--------------------------------------------------------------------------------

Number of tracks:  103
Official DR value: DR9

Samplerate:        96000 Hz
Channels:          2
Bits per sample:   24
Bitrate:           3103 kbps
Codec:             FLAC
================================================================================




Create a new paste based on this one


Comments: