[ create a new paste ] login | about

Link: http://codepad.org/LTdQnDJ6    [ raw code | fork ]

Plain Text, pasted on Nov 22:
Exact Audio Copy V1.3 from 2. September 2016

EAC extraction logfile from 20. November 2018, 10:14

The Beatles /  The White Album CD2

Used drive  : PLEXTOR BD-R  PX-B950SA   Adapter: 1  ID: 1

Read mode               : Secure
Utilize accurate stream : Yes
Defeat audio cache      : Yes
Make use of C2 pointers : No

Read offset correction                      : 6
Overread into Lead-In and Lead-Out          : No
Fill up missing offset samples with silence : Yes
Delete leading and trailing silent blocks   : No
Null samples used in CRC calculations       : Yes
Used interface                              : Native Win32 interface for Win NT & 2000

Used output format : Internal WAV Routines
Sample format      : 44.100 Hz; 16 Bit; Stereo


TOC of the extracted CD

     Track |   Start  |  Length  | Start sector | End sector 
    ---------------------------------------------------------
        1  |  0:00.00 |  2:42.74 |         0    |    12223   
        2  |  2:42.74 |  4:01.00 |     12224    |    30298   
        3  |  6:43.74 |  2:47.62 |     30299    |    42885   
        4  |  9:31.61 |  2:24.49 |     42886    |    53734   
        5  | 11:56.35 |  3:15.32 |     53735    |    68391   
        6  | 15:11.67 |  4:29.58 |     68392    |    88624   
        7  | 19:41.50 |  3:06.32 |     88625    |   102606   
        8  | 22:48.07 |  4:15.49 |    102607    |   121780   
        9  | 27:03.56 |  2:41.12 |    121781    |   133867   
       10  | 29:44.68 |  2:54.33 |    133868    |   146950   
       11  | 32:39.26 |  3:01.65 |    146951    |   160590   
       12  | 35:41.16 |  8:20.64 |    160591    |   198154   
       13  | 44:02.05 |  3:17.30 |    198155    |   212959   


Range status and errors

Selected range

     Filename C:\The Beatles\1968 The White Album (7-Disc Box Set UMC 2018)\CD2\The Beatles -  The White Album CD2.wav

     Peak level 96.4 %
     Extraction speed 6.8 X
     Range quality 100.0 %
     Test CRC 05DAB03F
     Copy CRC 05DAB03F
     Copy OK

No errors occurred

 
AccurateRip summary
 
Track  1  accurately ripped (confidence 10)  [CAFE25D9]  (AR v2)
Track  2  accurately ripped (confidence 10)  [1E4E0948]  (AR v2)
Track  3  accurately ripped (confidence 10)  [0AA05530]  (AR v2)
Track  4  accurately ripped (confidence 10)  [1F7E4B1F]  (AR v2)
Track  5  accurately ripped (confidence 10)  [16065B01]  (AR v2)
Track  6  accurately ripped (confidence 10)  [F5BD2A3D]  (AR v2)
Track  7  accurately ripped (confidence 10)  [72D2BEEB]  (AR v2)
Track  8  accurately ripped (confidence 10)  [6515AB08]  (AR v2)
Track  9  accurately ripped (confidence 10)  [FFC16C46]  (AR v2)
Track 10  accurately ripped (confidence 10)  [C7F60AAD]  (AR v2)
Track 11  accurately ripped (confidence 10)  [0524CF0A]  (AR v2)
Track 12  accurately ripped (confidence 10)  [67C8E420]  (AR v2)
Track 13  accurately ripped (confidence 10)  [1B2C390A]  (AR v2)
 
All tracks accurately ripped

End of status report

---- CUETools DB Plugin V2.1.6

[CTDB TOCID: wh7PyJikNtAjthtleXBwcbnf4KE-] found
Submit result: wh7PyJikNtAjthtleXBwcbnf4KE- has been confirmed
Track | CTDB Status
  1   | (463/463) Accurately ripped
  2   | (463/463) Accurately ripped
  3   | (462/463) Accurately ripped
  4   | (463/463) Accurately ripped
  5   | (463/463) Accurately ripped
  6   | (463/463) Accurately ripped
  7   | (463/463) Accurately ripped
  8   | (463/463) Accurately ripped
  9   | (463/463) Accurately ripped
 10   | (462/463) Accurately ripped
 11   | (462/463) Accurately ripped
 12   | (462/463) Accurately ripped
 13   | (447/463) Accurately ripped, or (2/463) differs in 1225 samples @03:17:17-03:17:20, or (2/463) differs in 635 samples @03:17:18-03:17:19, or (2/463) differs in 569 samples @03:17:19-03:17:20


==== Log checksum 9F3F4AACB133023F682EEF27F8EF6C9664FD5C01383724B3A64F73E2BEFF4588 ====



Create a new paste based on this one


Comments: