[ create a new paste ] login | about

Link: http://codepad.org/LUB9wnWu    [ raw code | fork ]

Plain Text, pasted on Apr 3:
CD-QUALITY
::::::::::

foobar2000 1.6.4 / Dynamic Range Meter 1.1.1
log date: 2021-04-03 21:49:42

--------------------------------------------------------------------------------
Analyzed: Aaron Lewis / Johnny Cash: Forever Words Expanded (1)
          Alison Krauss / Johnny Cash: Forever Words Expanded (2)
          Ana Cristina Cash / Johnny Cash: Forever Words Expanded (3)
          Bill Miller / Johnny Cash: Forever Words Expanded (4)
          Brad Paisley / Johnny Cash: Forever Words Expanded (5)
          Brandon Robert Young / Johnny Cash: Forever Words Expanded (6)
          Carlene Carter / Johnny Cash: Forever Words Expanded (7)
          Chris Cornell / Johnny Cash: Forever Words Expanded (8)
          Dailey & Vincent / Johnny Cash: Forever Words Expanded (9)
          Elvis Costello / Johnny Cash: Forever Words Expanded (10-11)
          Hard Working Americans / Johnny Cash: Forever Words Expanded (12)
          I'm With Her / Johnny Cash: Forever Words Expanded (13)
          IRA DEAN / Johnny Cash: Forever Words Expanded (14)
          Jamey Johnson / Johnny Cash: Forever Words Expanded (15-16)
          Jewel / Johnny Cash: Forever Words Expanded (17-18)
          John McEuen / Johnny Cash: Forever Words Expanded (19)
          John Mellencamp / Johnny Cash: Forever Words Expanded (20)
          John Popper / Johnny Cash: Forever Words Expanded (21)
          Kris Kristofferson / Johnny Cash: Forever Words Expanded (22)
          Marty Stuart / Johnny Cash: Forever Words Expanded (23)
          Robert Glasper / Johnny Cash: Forever Words Expanded (24)
          Ronnie Dunn / Johnny Cash: Forever Words Expanded (25)
          Rosanne Cash / Johnny Cash: Forever Words Expanded (26)
          Runaway June / Johnny Cash: Forever Words Expanded (27)
          Ruston Kelly / Johnny Cash: Forever Words Expanded (28-29)
          Shawn Camp / Johnny Cash: Forever Words Expanded (30)
          T Bone Burnett / Johnny Cash: Forever Words Expanded (31)
          The Jayhawks / Johnny Cash: Forever Words Expanded (32)
          The Lumineers / Johnny Cash: Forever Words Expanded (33)
          The Watkins Family Hour / Johnny Cash: Forever Words Expanded (34)
--------------------------------------------------------------------------------

DR         Peak         RMS     Duration Track
--------------------------------------------------------------------------------
DR8       -0.43 dB    -9.90 dB      4:20 33-The Third Degree
DR9       -0.66 dB   -11.17 dB      4:58 05-The Captain's Daughter
DR10      -0.47 dB   -12.28 dB      2:46 19-Brand New Pair of Shoes
DR8       -0.34 dB   -10.32 dB      7:46 34-Tecemseh
DR8       -0.51 dB   -10.74 dB      3:31 03-Gold All Over the Ground
DR9       -0.49 dB   -11.92 dB      5:27 25-Little Patch of Grass
DR8       -0.67 dB   -11.09 dB      3:39 11-June's Sundown
DR8       -0.56 dB   -11.00 dB      4:57 04-You Never Knew My Mind
DR8       -0.67 dB    -9.52 dB      3:16 12-He Bore It All
DR10      -0.67 dB   -14.16 dB      2:48 10-I'll Still Love You
DR5       -0.19 dB    -6.74 dB      2:39 20-If You Love Me
DR7       -0.29 dB    -8.36 dB      4:48 17-Big Hearted Girl
DR9       -0.67 dB   -13.44 dB      3:25 13-Chinky Pin Hill
DR8       -0.43 dB   -10.15 dB      3:30 28-Let it be Tonight
DR8       -0.69 dB   -12.27 dB      4:19 16-Spirit Rider
DR8       -0.47 dB   -10.66 dB      6:17 24-California Poem
DR7       -0.65 dB   -10.31 dB      4:26 09-Body On Body
DR7       -0.45 dB   -10.03 dB      3:31 26-Does Anybody Out There Love Me?
DR8       -0.41 dB    -9.50 dB      2:02 21-Dogs Are In the Woods
DR8       -0.33 dB    -9.02 dB      2:51 08-Them Double Blues
DR6       -0.43 dB    -8.31 dB      4:25 23-Who's Gonna Grease My Skillet?
DR10      -4.87 dB   -18.30 dB      0:47 01-Forever / I Still Miss Someone
DR6       -0.43 dB    -7.63 dB      3:50 22-I've Been Around
DR8       -0.27 dB    -9.94 dB      4:12 14-Goin', Goin', Gone
DR6       -0.28 dB    -8.27 dB      2:57 30-Outta Site Tonite
DR8       -0.59 dB   -11.07 dB      5:05 07-The Walking Wounded
DR8       -0.35 dB   -10.08 dB      3:39 31-My Song
DR10      -0.70 dB   -12.82 dB      2:05 02-To June This Morning
DR9       -0.50 dB   -11.42 dB      3:17 32-Dark and Bloody Ground
DR9       -0.49 dB   -10.10 dB      2:33 18-I'm Comin' Honey
DR6       -0.48 dB    -7.89 dB      3:38 06-Jellico Coal Man
DR7       -0.50 dB    -9.20 dB      3:16 15-What Would I Dreamer Do?
DR11      -0.50 dB   -14.97 dB      3:04 29-Pretty Pictures in My Mind
DR10      -0.51 dB   -13.16 dB      2:47 27-Autumn
--------------------------------------------------------------------------------

Number of tracks:  34
Official DR value: DR8

Samplerate:        44100 Hz
Channels:          2
Bits per sample:   16
Bitrate:           782 kbps
Codec:             FLAC
================================================================================



HI-RES
::::::

foobar2000 1.6.4 / Dynamic Range Meter 1.1.1
log date: 2021-04-03 21:33:48

--------------------------------------------------------------------------------
Analyzed: Aaron Lewis / Johnny Cash: Forever Words Expanded (1)
          Alison Krauss / Johnny Cash: Forever Words Expanded (2)
          Ana Cristina Cash / Johnny Cash: Forever Words Expanded (3)
          Bill Miller / Johnny Cash: Forever Words Expanded (4)
          Brad Paisley / Johnny Cash: Forever Words Expanded (5)
          Brandon Robert Young / Johnny Cash: Forever Words Expanded (6)
          Carlene Carter / Johnny Cash: Forever Words Expanded (7)
          Chris Cornell / Johnny Cash: Forever Words Expanded (8)
          Dailey & Vincent / Johnny Cash: Forever Words Expanded (9)
          Elvis Costello / Johnny Cash: Forever Words Expanded (10-11)
          Hard Working Americans / Johnny Cash: Forever Words Expanded (12)
          I'm With Her / Johnny Cash: Forever Words Expanded (13)
          IRA DEAN / Johnny Cash: Forever Words Expanded (14)
          Jamey Johnson / Johnny Cash: Forever Words Expanded (15-16)
          Jewel / Johnny Cash: Forever Words Expanded (17-18)
          John McEuen / Johnny Cash: Forever Words Expanded (19)
          John Mellencamp / Johnny Cash: Forever Words Expanded (20)
          John Popper / Johnny Cash: Forever Words Expanded (21)
          Kris Kristofferson / Johnny Cash: Forever Words Expanded (22)
          Marty Stuart / Johnny Cash: Forever Words Expanded (23)
          Robert Glasper / Johnny Cash: Forever Words Expanded (24)
          Ronnie Dunn / Johnny Cash: Forever Words Expanded (25)
          Rosanne Cash / Johnny Cash: Forever Words Expanded (26)
          Runaway June / Johnny Cash: Forever Words Expanded (27)
          Ruston Kelly / Johnny Cash: Forever Words Expanded (28-29)
          Shawn Camp / Johnny Cash: Forever Words Expanded (30)
          T Bone Burnett / Johnny Cash: Forever Words Expanded (31)
          The Jayhawks / Johnny Cash: Forever Words Expanded (32)
          The Lumineers / Johnny Cash: Forever Words Expanded (33)
          The Watkins Family Hour / Johnny Cash: Forever Words Expanded (34)
--------------------------------------------------------------------------------

DR         Peak         RMS     Duration Track
--------------------------------------------------------------------------------
DR8       -0.47 dB    -9.89 dB      4:20 33-The Third Degree
DR9       -0.70 dB   -11.17 dB      4:58 05-The Captain's Daughter
DR10      -0.50 dB   -12.27 dB      2:46 19-Brand New Pair of Shoes
DR8       -0.47 dB   -10.32 dB      7:46 34-Tecemseh
DR8       -0.70 dB   -10.73 dB      3:31 03-Gold All Over the Ground
DR9       -0.51 dB   -11.96 dB      5:27 25-Little Patch of Grass
DR8       -0.70 dB   -11.08 dB      3:39 11-June's Sundown
DR8       -0.70 dB   -10.99 dB      4:57 04-You Never Knew My Mind
DR8       -0.70 dB    -9.52 dB      3:16 12-He Bore It All
DR10      -0.70 dB   -14.15 dB      2:48 10-I'll Still Love You
DR5       -0.37 dB    -6.74 dB      2:39 20-If You Love Me
DR6       -0.44 dB    -8.36 dB      4:48 17-Big Hearted Girl
DR9       -0.70 dB   -13.44 dB      3:25 13-Chinky Pin Hill
DR8       -0.47 dB   -10.14 dB      3:30 28-Let it be Tonight
DR8       -0.70 dB   -12.27 dB      4:19 16-Spirit Rider
DR8       -0.50 dB   -10.66 dB      6:17 24-California Poem
DR7       -0.70 dB   -10.30 dB      4:26 09-Body On Body
DR7       -0.50 dB   -10.02 dB      3:31 26-Does Anybody Out There Love Me?
DR8       -0.49 dB    -9.49 dB      2:02 21-Dogs Are In the Woods
DR7       -0.70 dB    -9.02 dB      2:51 08-Them Double Blues
DR6       -0.48 dB    -8.31 dB      4:25 23-Who's Gonna Grease My Skillet?
DR10      -4.90 dB   -18.29 dB      0:47 01-Forever / I Still Miss Someone
DR6       -0.50 dB    -7.63 dB      3:50 22-I've Been Around
DR8       -0.70 dB    -9.94 dB      4:12 14-Goin', Goin', Gone
DR6       -0.30 dB    -8.27 dB      2:57 30-Outta Site Tonite
DR8       -0.70 dB   -11.07 dB      5:05 07-The Walking Wounded
DR8       -0.45 dB   -10.07 dB      3:39 31-My Song
DR10      -0.70 dB   -12.81 dB      2:05 02-To June This Morning
DR9       -0.51 dB   -11.42 dB      3:17 32-Dark and Bloody Ground
DR8       -0.50 dB   -10.10 dB      2:33 18-I'm Comin' Honey
DR6       -0.70 dB    -7.89 dB      3:38 06-Jellico Coal Man
DR7       -0.70 dB    -9.19 dB      3:16 15-What Would I Dreamer Do?
DR11      -0.51 dB   -14.97 dB      3:04 29-Pretty Pictures in My Mind
DR10      -0.51 dB   -13.15 dB      2:47 27-Autumn
--------------------------------------------------------------------------------

Number of tracks:  34
Official DR value: DR8

Samplerate:        96000 Hz
Channels:          2
Bits per sample:   24
Bitrate:           2649 kbps
Codec:             FLAC
================================================================================




Create a new paste based on this one


Comments: