[ create a new paste ] login | about

Link: http://codepad.org/LVpwWFbJ    [ raw code | fork ]

Plain Text, pasted on Apr 24:
foobar2000 1.3.17 / Dynamic Range Meter 1.1.1
log date: 2018-04-24 08:08:43

--------------------------------------------------------------------------------
Analyzed: Marshall Crenshaw / Marshall Crenshaw
--------------------------------------------------------------------------------

DR         Peak         RMS     Duration Track
--------------------------------------------------------------------------------
DR14      -0.27 dB   -15.25 dB      2:40 01-There She Goes Again
DR14      -0.19 dB   -16.20 dB      2:51 02-Someday, Someway
DR13      -0.02 dB   -15.23 dB      3:04 03-Girls...
DR13      -0.13 dB   -15.17 dB      3:02 04-I'll Do Anything
DR13      -0.03 dB   -14.95 dB      3:09 05-Rockin' Around In N.Y.C.
DR12      -1.64 dB   -15.57 dB      3:04 06-The Usual Thing
DR11       0.00 dB   -12.90 dB      2:47 07-She Can't Dance
DR12      -0.10 dB   -14.28 dB      2:36 08-Cynical Girl
DR12       0.00 dB   -13.86 dB      2:54 09-Mary Anne
DR12      -0.08 dB   -13.84 dB      2:38 10-Soldier Of Love
DR13      -0.07 dB   -14.90 dB      2:35 11-Not For Me
DR12      -0.05 dB   -13.94 dB      2:29 12-Brand New Lover
--------------------------------------------------------------------------------

Number of tracks:  12
Official DR value: DR13

Samplerate:        44100 Hz
Channels:          2
Bits per sample:   16
Bitrate:           877 kbps
Codec:             FLAC
================================================================================




Create a new paste based on this one


Comments: