[ create a new paste ] login | about

Link: http://codepad.org/LYEYDfhr    [ raw code | fork ]

Plain Text, pasted on Mar 17:
Exact Audio Copy V0.99 prebeta 5 from 4. May 2009

EAC extraction logfile from 26. September 2015, 11:51

Cliff Richard / 75 From 75 (CD 3)

Used drive  : ATAPI   iHAS122   C   Adapter: 1  ID: 1

Read mode               : Secure
Utilize accurate stream : Yes
Defeat audio cache      : Yes
Make use of C2 pointers : No

Read offset correction                      : 6
Overread into Lead-In and Lead-Out          : No
Fill up missing offset samples with silence : Yes
Delete leading and trailing silent blocks   : No
Null samples used in CRC calculations       : Yes
Used interface                              : Native Win32 interface for Win NT & 2000

Used output format : Internal WAV Routines
Sample format      : 44.100 Hz; 16 Bit; Stereo


TOC of the extracted CD

     Track |   Start  |  Length  | Start sector | End sector 
    ---------------------------------------------------------
        1  |  0:00.00 |  3:53.38 |         0    |    17512   
        2  |  3:53.38 |  3:54.72 |     17513    |    35134   
        3  |  7:48.35 |  4:11.04 |     35135    |    53963   
        4  | 11:59.39 |  3:26.53 |     53964    |    69466   
        5  | 15:26.17 |  2:56.72 |     69467    |    82738   
        6  | 18:23.14 |  4:45.06 |     82739    |   104119   
        7  | 23:08.20 |  4:53.10 |    104120    |   126104   
        8  | 28:01.30 |  4:25.20 |    126105    |   145999   
        9  | 32:26.50 |  3:44.53 |    146000    |   162852   
       10  | 36:11.28 |  4:47.70 |    162853    |   184447   
       11  | 40:59.23 |  3:49.68 |    184448    |   201690   
       12  | 44:49.16 |  4:41.06 |    201691    |   222771   
       13  | 49:30.22 |  4:47.15 |    222772    |   244311   
       14  | 54:17.37 |  3:39.49 |    244312    |   260785   
       15  | 57:57.11 |  3:44.53 |    260786    |   277638   
       16  | 61:41.64 |  4:00.52 |    277639    |   295690   
       17  | 65:42.41 |  4:07.42 |    295691    |   314257   
       18  | 69:50.08 |  3:21.16 |    314258    |   329348   
       19  | 73:11.24 |  4:32.10 |    329349    |   349758   


Range status and errors

Selected range

     Filename C:\Users\arthu\Desktop\Cliff Richard - 75 From 75 (CD 3).wav

     Peak level 97.7 %
     Range quality 100.0 %
     Test CRC 4D1CDBE4
     Copy CRC 4D1CDBE4
     Copy OK

No errors occurred

 
AccurateRip summary
 
Track  1  not present in database
Track  2  not present in database
Track  3  not present in database
Track  4  not present in database
Track  5  not present in database
Track  6  not present in database
Track  7  not present in database
Track  8  not present in database
Track  9  not present in database
Track 10  not present in database
Track 11  not present in database
Track 12  not present in database
Track 13  not present in database
Track 14  not present in database
Track 15  not present in database
Track 16  not present in database
Track 17  not present in database
Track 18  not present in database
Track 19  not present in database
 
None of the tracks are present in the AccurateRip database

End of status report



Create a new paste based on this one


Comments: