[ create a new paste ] login | about

Link: http://codepad.org/LZG4p08B    [ raw code | fork ]

Plain Text, pasted on May 21:
Exact Audio Copy V1.1 from 23. June 2015

EAC extraction logfile from 16. May 2016, 15:25

Various Artists / Girls Girls Girls! 75 Songs About Girls Girls Girls! (CD 2)

Used drive  : hp      CDDVDW SH-216BB   Adapter: 1  ID: 0

Read mode               : Secure
Utilize accurate stream : Yes
Defeat audio cache      : Yes
Make use of C2 pointers : No

Read offset correction                      : 6
Overread into Lead-In and Lead-Out          : No
Fill up missing offset samples with silence : Yes
Delete leading and trailing silent blocks   : No
Null samples used in CRC calculations       : Yes
Used interface                              : Native Win32 interface for Win NT & 2000

Used output format : Internal WAV Routines
Sample format      : 44.100 Hz; 16 Bit; Stereo


TOC of the extracted CD

     Track |   Start  |  Length  | Start sector | End sector 
    ---------------------------------------------------------
        1  |  0:00.00 |  2:19.15 |         0    |    10439   
        2  |  2:19.15 |  2:36.38 |     10440    |    22177   
        3  |  4:55.53 |  2:27.18 |     22178    |    33220   
        4  |  7:22.71 |  2:23.31 |     33221    |    43976   
        5  |  9:46.27 |  2:08.67 |     43977    |    53643   
        6  | 11:55.19 |  2:21.12 |     53644    |    64230   
        7  | 14:16.31 |  2:09.25 |     64231    |    73930   
        8  | 16:25.56 |  2:18.68 |     73931    |    84348   
        9  | 18:44.49 |  2:46.65 |     84349    |    96863   
       10  | 21:31.39 |  2:34.51 |     96864    |   108464   
       11  | 24:06.15 |  2:33.04 |    108465    |   119943   
       12  | 26:39.19 |  2:18.21 |    119944    |   130314   
       13  | 28:57.40 |  1:57.41 |    130315    |   139130   
       14  | 30:55.06 |  2:05.72 |    139131    |   148577   
       15  | 33:01.03 |  2:03.21 |    148578    |   157823   
       16  | 35:04.24 |  2:56.19 |    157824    |   171042   
       17  | 38:00.43 |  2:28.08 |    171043    |   182150   
       18  | 40:28.51 |  1:34.60 |    182151    |   189260   
       19  | 42:03.36 |  2:18.37 |    189261    |   199647   
       20  | 44:21.73 |  2:05.16 |    199648    |   209038   
       21  | 46:27.14 |  2:25.12 |    209039    |   219925   
       22  | 48:52.26 |  2:16.42 |    219926    |   230167   
       23  | 51:08.68 |  2:38.12 |    230168    |   242029   
       24  | 53:47.05 |  2:46.30 |    242030    |   254509   
       25  | 56:33.35 |  2:26.35 |    254510    |   265494   


Range status and errors

Selected range

     Filename C:\Users\Arturs\Desktop\Various Artists - Girls Girls Girls! 75 Songs About Girls Girls Girls! (CD 2).wav

     Peak level 100.0 %
     Extraction speed 3.1 X
     Range quality 100.0 %
     Test CRC AAA0E007
     Copy CRC AAA0E007
     Copy OK

No errors occurred

 
AccurateRip summary
 
Track  1  not present in database
Track  2  not present in database
Track  3  not present in database
Track  4  not present in database
Track  5  not present in database
Track  6  not present in database
Track  7  not present in database
Track  8  not present in database
Track  9  not present in database
Track 10  not present in database
Track 11  not present in database
Track 12  not present in database
Track 13  not present in database
Track 14  not present in database
Track 15  not present in database
Track 16  not present in database
Track 17  not present in database
Track 18  not present in database
Track 19  not present in database
Track 20  not present in database
Track 21  not present in database
Track 22  not present in database
Track 23  not present in database
Track 24  not present in database
Track 25  not present in database
 
None of the tracks are present in the AccurateRip database

End of status report

---- CUETools DB Plugin V2.1.6

[CTDB TOCID: aTprWDrXzGhDVKG8QatuXN62Wxg-] found
Submit result: aTprWDrXzGhDVKG8QatuXN62Wxg- has been confirmed
Track | CTDB Status
  1   | (1/1) Accurately ripped
  2   | (1/1) Accurately ripped
  3   | (1/1) Accurately ripped
  4   | (1/1) Accurately ripped
  5   | (1/1) Accurately ripped
  6   | (1/1) Accurately ripped
  7   | (1/1) Accurately ripped
  8   | (1/1) Accurately ripped
  9   | (1/1) Accurately ripped
 10   | (1/1) Accurately ripped
 11   | (1/1) Accurately ripped
 12   | (1/1) Accurately ripped
 13   | (1/1) Accurately ripped
 14   | (1/1) Accurately ripped
 15   | (1/1) Accurately ripped
 16   | (1/1) Accurately ripped
 17   | (1/1) Accurately ripped
 18   | (1/1) Accurately ripped
 19   | (1/1) Accurately ripped
 20   | (1/1) Accurately ripped
 21   | (1/1) Accurately ripped
 22   | (1/1) Accurately ripped
 23   | (1/1) Accurately ripped
 24   | (1/1) Accurately ripped
 25   | (1/1) Accurately ripped


==== Log checksum 7DE56EC10FA6356F963CC6FA1D535E4613D0E06E017FB8F15279CEF76D5AA5E5 ====



Create a new paste based on this one


Comments: