[ create a new paste ] login | about

Link: http://codepad.org/LZQ1tMv5    [ raw code | fork ]

Plain Text, pasted on Aug 21:
foobar2000 1.3.17 / Dynamic Range Meter 1.1.1
log date: 2018-08-21 10:00:56

--------------------------------------------------------------------------------
Analyzed: R.E.M. / Green
--------------------------------------------------------------------------------

DR         Peak         RMS     Duration Track
--------------------------------------------------------------------------------
DR11      -1.88 dB   -14.05 dB      3:06 01-Pop Song 89
DR10      -0.08 dB   -13.08 dB      2:40 02-Get Up
DR12      -2.55 dB   -16.25 dB      3:48 03-You Are The Everything
DR11      -0.31 dB   -13.82 dB      3:13 04-Stand
DR12      -0.69 dB   -14.21 dB      4:22 05-World Leader Pretend
DR11      -1.19 dB   -15.47 dB      3:39 06-The Wrong Child
DR11      -1.65 dB   -14.39 dB      3:54 07-Orange Crush
DR12      -0.34 dB   -13.83 dB      4:19 08-Turn You Inside-Out
DR12      -4.46 dB   -19.29 dB      3:57 09-Hairshirt
DR12       0.00 dB   -14.24 dB      5:02 10-I Remember California
DR12       0.00 dB   -14.07 dB      3:14 11-Untitled
--------------------------------------------------------------------------------

Number of tracks:  11
Official DR value: DR11

Samplerate:        192000 Hz
Channels:          2
Bits per sample:   24
Bitrate:           5275 kbps
Codec:             FLAC
================================================================================


foobar2000 1.3.17 / Dynamic Range Meter 1.1.1
log date: 2018-08-21 11:23:32

--------------------------------------------------------------------------------
Analyzed: R.E.M. / Green
--------------------------------------------------------------------------------

DR         Peak         RMS     Duration Track
--------------------------------------------------------------------------------
DR11      -0.97 dB   -13.71 dB      3:00 01-Stand (Live - Greensboro Coliseum, NC 11/10/1989)
DR10      -3.51 dB   -16.05 dB      3:18 02-The One I Love (Live - Greensboro Coliseum, NC 11/10/1989)
DR11      -1.34 dB   -13.53 dB      3:39 03-So. Central Rain (I'm Sorry) [Live - Greensboro Coliseum, NC 11/10/1989]
DR12      -0.49 dB   -13.86 dB      4:09 04-Turn You Inside-Out (Live - Greensboro Coliseum, NC 11/10/1989)
DR12      -0.85 dB   -15.06 dB      4:09 05-Belong (Live - Greensboro Coliseum, NC 11/10/1989)
DR12      -1.11 dB   -14.56 dB      3:14 06-Exhuming McCarthy (Live - Greensboro Coliseum, NC 11/10/1989)
DR11      -2.08 dB   -14.62 dB      3:11 07-Good Advices (Live - Greensboro Coliseum, NC 11/10/1989)
DR12       0.00 dB   -13.55 dB      3:37 08-Orange Crush (Live - Greensboro Coliseum, NC 11/10/1989)
DR13      -0.88 dB   -15.46 dB      6:19 09-Feeling Gravitys Pull (Live - Greensboro Coliseum, NC 11/10/1989)
DR13      -0.31 dB   -15.03 dB      4:11 10-Cuyahoga (Live - Greensboro Coliseum, NC 11/10/1989)
DR12      -0.68 dB   -14.09 dB      3:36 11-These Days (Live - Greensboro Coliseum, NC 11/10/1989)
DR13      -0.93 dB   -15.85 dB      4:13 12-World Leader Pretend (Live - Greensboro Coliseum, NC 11/10/1989)
DR12      -1.71 dB   -15.66 dB      4:12 13-I Believe  (Live - Greensboro Coliseum, NC 11/10/1989)
DR12      -1.72 dB   -15.32 dB      5:24 14-I Remember California (Live - Greensboro Coliseum, NC 11/10/1989)
DR12      -0.46 dB   -14.56 dB      2:34 15-Get Up (Live - Greensboro Coliseum, NC 11/10/1989)
DR11      -2.39 dB   -15.68 dB      4:23 16-Life And How To Live It (Live - Greensboro Coliseum, NC 11/10/1989)
DR12      -2.02 dB   -15.30 dB      4:32 17-It's The End Of The World As We Know It (And I Feel Fine) (Live - Greensboro Coliseum, NC 11/10/1989)
DR12      -2.61 dB   -15.38 dB      3:10 18-Pop Song 89 (Live - Greensboro Coliseum, NC 11/10/1989)
DR11      -1.62 dB   -14.66 dB      2:56 19-Fall On Me (Live - Greensboro Coliseum, NC 11/10/1989)
DR12      -2.45 dB   -17.59 dB      4:29 20-You Are The Everything (Live - Greensboro Coliseum, NC 11/10/1989)
DR12      -1.19 dB   -14.35 dB      3:38 21-Begin The Begin (Live - Greensboro Coliseum, NC 11/10/1989)
DR13      -1.67 dB   -18.69 dB      5:09 22-King Of Birds (Live - Greensboro Coliseum, NC 11/10/1989)
DR12      -0.88 dB   -14.71 dB      2:45 23-Strange (Live - Greensboro Coliseum, NC 11/10/1989)
DR13      -2.68 dB   -19.52 dB      5:19 24-Low (Live - Greensboro Coliseum, NC 11/10/1989)
DR12       0.00 dB   -13.85 dB      3:43 25-Finest Worksong (Live - Greensboro Coliseum, NC 11/10/1989)
DR14      -0.89 dB   -17.35 dB      4:08 26-Perfect Circle (Live - Greensboro Coliseum, NC 11/10/1989)
--------------------------------------------------------------------------------

Number of tracks:  26
Official DR value: DR12

Samplerate:        192000 Hz
Channels:          2
Bits per sample:   24
Bitrate:           4948 kbps
Codec:             FLAC
================================================================================




Create a new paste based on this one


Comments: