[ create a new paste ] login | about

Link: http://codepad.org/LbBRAOQo    [ raw code | fork ]

Plain Text, pasted on May 29:
foobar2000 1.4.4 / Dynamic Range Meter 1.1.1
log date: 2019-05-28 19:33:42

--------------------------------------------------------------------------------
Analyzed: The Rolling Stones / Beggars Banquet
--------------------------------------------------------------------------------

DR         Peak         RMS     Duration Track
--------------------------------------------------------------------------------
DR10      -0.05 dB   -12.05 dB      6:28 01-Sympathy For The Devil
DR11      -1.77 dB   -15.23 dB      4:04 02-No Expectations
DR11      -0.06 dB   -12.85 dB      3:29 03-Dear Doctor
DR9       -1.82 dB   -13.75 dB      2:26 04-Parachute Woman
DR10      -0.60 dB   -12.88 dB      6:18 05-Jig-Saw Puzzle
DR10      -0.05 dB   -12.47 dB      3:20 06-Street Fighting Man
DR11      -0.93 dB   -14.25 dB      2:56 07-Prodigal Son
DR10      -0.86 dB   -13.41 dB      4:42 08-Stray Cat Blues
DR11      -1.62 dB   -15.41 dB      2:14 09-Factory Girl
DR10      -0.10 dB   -13.71 dB      4:51 10-Salt Of The Earth
--------------------------------------------------------------------------------

Number of tracks:  10
Official DR value: DR10

Samplerate:        96000 Hz
Channels:          2
Bits per sample:   24
Bitrate:           3117 kbps
Codec:             FLAC
================================================================================




Create a new paste based on this one


Comments: