[ create a new paste ] login | about

Link: http://codepad.org/LbLoI4dx    [ raw code | fork ]

Plain Text, pasted on Feb 27:
foobar2000 1.5 / Dynamic Range Meter 1.1.1
log date: 2020-02-27 18:15:32

--------------------------------------------------------------------------------
Analyzed: Heuy Lewis & The News / Sports
--------------------------------------------------------------------------------

DR         Peak         RMS     Duration Track
--------------------------------------------------------------------------------
DR13      -0.43 dB   -15.45 dB      5:00 01-The Heart Of Rock & Roll
DR14      -0.05 dB   -17.16 dB      4:10 02-Heart And Soul
DR12      -3.79 dB   -17.49 dB      3:46 03-Bad Is Bad
DR14      -0.10 dB   -16.76 dB      4:42 04-I Want A New Drug
DR13      -1.12 dB   -15.98 dB      5:07 05-Walking On A Thin Line
DR12      -0.73 dB   -15.24 dB      3:41 06-Finally Found A Home
DR13      -0.87 dB   -16.29 dB      3:49 07-If This Isn't
DR12      -0.05 dB   -14.61 dB      3:40 08-You Crack Me Up
DR14      -0.05 dB   -16.77 dB      3:16 09-Honky Tonk Blues
--------------------------------------------------------------------------------

Number of tracks:  9
Official DR value: DR13

Samplerate:        96000 Hz
Channels:          2
Bits per sample:   24
Bitrate:           2976 kbps
Codec:             FLAC
================================================================================




Create a new paste based on this one


Comments: