[ create a new paste ] login | about

Link: http://codepad.org/LcqH9lyL    [ raw code | fork ]

Plain Text, pasted on Jun 13:
Exact Audio Copy V1.0 beta 2 from 29. April 2011

EAC extraction logfile from 3. July 2011, 13:30

Jackson 5 / Goin' Back To Indiana / Lookin' Through The Windows

Used drive  : HL-DT-STDVDRAM GSA-H60N   Adapter: 2  ID: 0

Read mode               : Secure
Utilize accurate stream : Yes
Defeat audio cache      : Yes
Make use of C2 pointers : No

Read offset correction                      : 667
Overread into Lead-In and Lead-Out          : No
Fill up missing offset samples with silence : Yes
Delete leading and trailing silent blocks   : No
Null samples used in CRC calculations       : Yes
Used interface                              : Native Win32 interface for Win NT & 2000

Used output format : Internal WAV Routines
Sample format      : 44.100 Hz; 16 Bit; Stereo


TOC of the extracted CD

     Track |   Start  |  Length  | Start sector | End sector 
    ---------------------------------------------------------
        1  |  0:00.00 |  4:16.15 |         0    |    19214   
        2  |  4:16.15 |  4:19.30 |     19215    |    38669   
        3  |  8:35.45 |  7:58.17 |     38670    |    74536   
        4  | 16:33.62 |  4:15.48 |     74537    |    93709   
        5  | 20:49.35 |  2:08.70 |     93710    |   103379   
        6  | 22:58.30 |  4:12.02 |    103380    |   122281   
        7  | 27:10.32 |  4:57.33 |    122282    |   144589   
        8  | 32:07.65 |  4:47.62 |    144590    |   166176   
        9  | 36:55.52 |  2:31.55 |    166177    |   177556   
       10  | 39:27.32 |  3:46.28 |    177557    |   194534   
       11  | 43:13.60 |  3:13.67 |    194535    |   209076   
       12  | 46:27.52 |  3:22.50 |    209077    |   224276   
       13  | 49:50.27 |  3:14.40 |    224277    |   238866   
       14  | 53:04.67 |  2:52.00 |    238867    |   251766   
       15  | 55:56.67 |  2:53.10 |    251767    |   264751   
       16  | 58:50.02 |  3:20.68 |    264752    |   279819   
       17  | 62:10.70 |  2:47.07 |    279820    |   292351   
       18  | 64:58.02 |  2:29.23 |    292352    |   303549   
       19  | 67:27.25 |  2:37.30 |    303550    |   315354   
       20  | 70:04.55 |  3:27.45 |    315355    |   330924   
       21  | 73:32.25 |  5:34.72 |    330925    |   356046   


Range status and errors

Selected range

     Filename C:\Documents and Settings\2011 Dear Michael 12 SHM-CD\Disc 6 Goin' Back To Indiana - Lookin' Through The Windows\Goin' Back To Indiana - Lookin' Through The Windows.wav

     Peak level 97.7 %
     Extraction speed 6.2 X
     Range quality 99.9 %
     Test CRC 50DAAE55
     Copy CRC 50DAAE55
     Copy OK

No errors occurred

 
AccurateRip summary
 
Track  1  accurately ripped (confidence 2)  [245B095E]  (AR v1)
Track  2  accurately ripped (confidence 2)  [C9C5DAD7]  (AR v1)
Track  3  accurately ripped (confidence 2)  [892E3559]  (AR v1)
Track  4  accurately ripped (confidence 2)  [3DB77C3B]  (AR v1)
Track  5  accurately ripped (confidence 2)  [1A348BF7]  (AR v1)
Track  6  accurately ripped (confidence 2)  [2F189634]  (AR v1)
Track  7  accurately ripped (confidence 2)  [F501ECBD]  (AR v1)
Track  8  accurately ripped (confidence 2)  [012491F4]  (AR v1)
Track  9  accurately ripped (confidence 2)  [4F080BEE]  (AR v1)
Track 10  accurately ripped (confidence 2)  [E5E52A13]  (AR v1)
Track 11  accurately ripped (confidence 2)  [201A94BF]  (AR v1)
Track 12  accurately ripped (confidence 2)  [BAE6FB6B]  (AR v1)
Track 13  accurately ripped (confidence 2)  [F4971C7D]  (AR v1)
Track 14  accurately ripped (confidence 2)  [A6BA0AE7]  (AR v1)
Track 15  accurately ripped (confidence 2)  [970D155C]  (AR v1)
Track 16  accurately ripped (confidence 2)  [71C75B57]  (AR v1)
Track 17  accurately ripped (confidence 2)  [EDD32A4E]  (AR v1)
Track 18  accurately ripped (confidence 2)  [31E4432A]  (AR v1)
Track 19  accurately ripped (confidence 2)  [621F4A37]  (AR v1)
Track 20  accurately ripped (confidence 2)  [A6D3CFA9]  (AR v1)
Track 21  accurately ripped (confidence 2)  [E42BFB1C]  (AR v1)
 
All tracks accurately ripped

End of status report


==== Log checksum EDD32B6279308553864C629626CFF52261E17F36EBBF2A40280C7F21A05187B0 ====



Create a new paste based on this one


Comments: