[ create a new paste ] login | about

Link: http://codepad.org/Lct4EU10    [ raw code | fork ]

Plain Text, pasted on Apr 25:
foobar2000 1.4.1 / Dynamic Range Meter 1.1.1
log date: 2019-04-25 11:22:58

--------------------------------------------------------------------------------
Analyzed: ? / Funky Organ  -- B-3 Jazz Grooves
--------------------------------------------------------------------------------

DR         Peak         RMS     Duration Track
--------------------------------------------------------------------------------
DR9       -0.93 dB   -11.79 dB      4:58 01-The Cat
DR13      -0.01 dB   -14.78 dB      6:37 02-Cold Duck Time
DR10      -1.08 dB   -13.49 dB      6:45 03-Delilah
DR10      -1.37 dB   -12.85 dB      7:33 04-My Blues Is Funky
DR12      -0.92 dB   -14.83 dB      6:06 05-That Dirty Thang
DR9       -2.04 dB   -12.48 dB      4:26 06-Watch Me Fly
DR10      -1.06 dB   -13.60 dB      7:55 07-160 Million Dollar Chinese Man
DR10      -0.17 dB   -13.28 dB      5:01 08-In The Bag
DR9       -0.96 dB   -12.09 dB      5:47 09-The Preacher
DR11      -0.52 dB   -13.87 dB      7:39 10-Put It Where You Want It
--------------------------------------------------------------------------------

Number of tracks:  10
Official DR value: DR10

Samplerate:        88200 Hz
Channels:          2
Bits per sample:   24
Bitrate:           2623 kbps
Codec:             FLAC
================================================================================




Create a new paste based on this one


Comments: