[ create a new paste ] login | about

Link: http://codepad.org/Lmo0fKzT    [ raw code | fork ]

Plain Text, pasted on Nov 26:
[CUETools log; Date: 10/28/2015 12:31:53 PM; Version: 2.1.5]
[CTDB TOCID: EC9Jf0FrnBEHCPHu5XzeMfsBw4Q-] found.
Track | CTDB Status
  1   | (14/14) Accurately ripped
  2   | (14/14) Accurately ripped
  3   | (14/14) Accurately ripped
  4   | (14/14) Accurately ripped
  5   | (14/14) Accurately ripped
  6   | (14/14) Accurately ripped
  7   | (14/14) Accurately ripped
  8   | (14/14) Accurately ripped
  9   | (14/14) Accurately ripped
 10   | (14/14) Accurately ripped
 11   | (14/14) Accurately ripped
 12   | (14/14) Accurately ripped
 13   | (14/14) Accurately ripped
 14   | (14/14) Accurately ripped
 15   | (14/14) Accurately ripped
 16   | (14/14) Accurately ripped
 17   | (14/14) Accurately ripped
 18   | (14/14) Accurately ripped
 19   | (14/14) Accurately ripped
 20   | (14/14) Accurately ripped
 21   | (14/14) Accurately ripped
 22   | (14/14) Accurately ripped
 23   | (14/14) Accurately ripped
 24   | (14/14) Accurately ripped
 25   | (14/14) Accurately ripped
[AccurateRip ID: 0046aad2-04d5646d-8d116819] found.
Track   [  CRC   |   V2   ] Status
 01     [a26ee8b7|0c513fbb] (00+20/20) Accurately ripped
 02     [97208289|c3597fd0] (00+20/20) Accurately ripped
 03     [2f8de7f1|2f8bd7ad] (00+20/20) Accurately ripped
 04     [083f9f18|34b16730] (00+20/20) Accurately ripped
 05     [56f808ac|c3619a76] (00+20/20) Accurately ripped
 06     [96c046e2|6198db29] (00+20/20) Accurately ripped
 07     [e250a45f|4ca3905c] (00+20/20) Accurately ripped
 08     [7b2d1ee3|4d96f3cd] (00+20/20) Accurately ripped
 09     [fe923e44|87b2913a] (00+20/20) Accurately ripped
 10     [50045d9d|6629ee43] (00+20/20) Accurately ripped
 11     [414f4a1a|56ec62d1] (00+20/20) Accurately ripped
 12     [14a90eea|ac4a7666] (00+20/20) Accurately ripped
 13     [aeac3cfa|bbe46dab] (00+20/20) Accurately ripped
 14     [8f7d3830|b5a95113] (00+20/20) Accurately ripped
 15     [f22f1a9f|14941718] (00+20/20) Accurately ripped
 16     [8019eb75|32f2f19e] (00+20/20) Accurately ripped
 17     [13498d6c|b092cdb2] (00+20/20) Accurately ripped
 18     [47e1526e|01eff14b] (00+20/20) Accurately ripped
 19     [c50738c3|35812d55] (00+20/20) Accurately ripped
 20     [05fff813|6a118f71] (00+20/20) Accurately ripped
 21     [1e9122e8|02674313] (00+20/20) Accurately ripped
 22     [1e320c79|023a1ff8] (00+20/20) Accurately ripped
 23     [8f1886cc|4c3632ec] (00+20/20) Accurately ripped
 24     [05076db7|af600ccb] (00+20/20) Accurately ripped
 25     [184c3c4e|b2b38fc6] (00+20/20) Accurately ripped

Track Peak [ CRC32  ] [W/O NULL] [  LOG   ]
 --   99.9 [A4267D72] [5C9F91B9]   CRC32   
 01   99.9 [7AE10AB1] [2A8F7276]           
 02   95.9 [408C949B] [4B4EDA69]           
 03   92.8 [F1F337B6] [1611186A]           
 04   99.9 [C6E53FD0] [70D05F5A]           
 05   99.8 [C3CB992F] [5A3E9C14]           
 06   99.9 [01A96F1A] [61F6688B]           
 07   99.7 [A3E147A8] [146AE4F7]           
 08   99.8 [5333CCDD] [1CD97E42]           
 09   99.8 [63609D0E] [6A80D94F]           
 10   99.7 [817D03B5] [5D1E4D2E]           
 11   99.1 [BDEF2F47] [31B2A96C]           
 12   99.8 [8C12208C] [BDD5DEC3]           
 13   92.8 [1691D2BB] [427E8860]           
 14   93.6 [C26CD04F] [4825E94F]           
 15   99.7 [1E4E77EE] [7E7CC4BB]           
 16   99.8 [FDCD3103] [D0DCE2B4]           
 17   99.8 [F82C2B19] [9430D926]           
 18   99.8 [B5D0DD65] [E4319F9F]           
 19   87.4 [44CB73E4] [1F05C19B]           
 20   99.8 [BE67EB0F] [1B299249]           
 21   99.9 [00110C54] [5EEC4587]           
 22   99.8 [6D31A805] [682EDC24]           
 23   99.8 [7E49ADA8] [52999869]           
 24   99.9 [E08411A6] [1DF95F05]           
 25   99.9 [D55E2052] [ADAB1D1C]           



Create a new paste based on this one


Comments: