[ create a new paste ] login | about

Link: http://codepad.org/LnzPpmVr    [ raw code | fork ]

Plain Text, pasted on Nov 22:
Exact Audio Copy V1.0 beta 2 from 29. April 2011

EAC extraction logfile from 23. September 2014, 0:23

Mike Bloomfield, Al Kooper, Stephen Stills / Super Session [2014 Audio Fidelity SACD AFZ5 186]

Used drive  : HL-DT-STBD-RE  BH14NS40   Adapter: 0  ID: 2

Read mode               : Secure
Utilize accurate stream : Yes
Defeat audio cache      : Yes
Make use of C2 pointers : No

Read offset correction                      : 6
Overread into Lead-In and Lead-Out          : No
Fill up missing offset samples with silence : Yes
Delete leading and trailing silent blocks   : No
Null samples used in CRC calculations       : Yes
Used interface                              : Native Win32 interface for Win NT & 2000

Used output format              : User Defined Encoder
Selected bitrate                : 1024 kBit/s
Quality                         : High
Add ID3 tag                     : No
Command line compressor         : C:\Program Files (x86)\Exact Audio Copy\Flac\flac.exe
Additional command line options : -V -5 -T "artist=%albumartist%" -T "title=%title%" -T "album=%albumtitle%" -T "date=%year%" -T "genre=%genre%" -T "tracknumber=%tracknr%" %source%


TOC of the extracted CD

     Track |   Start  |  Length  | Start sector | End sector 
    ---------------------------------------------------------
        1  |  0:00.00 |  6:53.47 |         0    |    31021   
        2  |  6:53.47 |  4:22.58 |     31022    |    50729   
        3  | 11:16.30 |  3:25.08 |     50730    |    66112   
        4  | 14:41.38 |  9:13.27 |     66113    |   107614   
        5  | 23:54.65 |  5:31.23 |    107615    |   132462   
        6  | 29:26.13 |  3:31.16 |    132463    |   148303   
        7  | 32:57.29 | 11:07.29 |    148304    |   198357   
        8  | 44:04.58 |  4:10.37 |    198358    |   217144   
        9  | 48:15.20 |  2:06.61 |    217145    |   226655   


Range status and errors

Selected range

     Filename C:\EAC\Mike Bloomfield, Al Kooper, Steve Stills - (1968) Super Session [2014 Audio Fidelity SACD AFZ5 186]\Mike Bloomfield, Al Kooper, Stephen Stills - Super Session [2014 Audio Fidelity SACD AFZ5 186].wav

     Peak level 99.8 %
     Extraction speed 4.6 X
     Range quality 100.0 %
     Test CRC B2E7D1C3
     Copy CRC B2E7D1C3
     Copy OK

No errors occurred

 
AccurateRip summary
 
Track  1  accurately ripped (confidence 1)  [11237D91]  (AR v2)
Track  2  accurately ripped (confidence 1)  [923D947C]  (AR v2)
Track  3  accurately ripped (confidence 1)  [7555367C]  (AR v2)
Track  4  accurately ripped (confidence 1)  [AA927A74]  (AR v2)
Track  5  accurately ripped (confidence 1)  [FA236F1B]  (AR v2)
Track  6  accurately ripped (confidence 1)  [E4532574]  (AR v2)
Track  7  accurately ripped (confidence 1)  [FCE03978]  (AR v2)
Track  8  accurately ripped (confidence 1)  [B8D750B6]  (AR v2)
Track  9  accurately ripped (confidence 1)  [CF1ED854]  (AR v2)
 
All tracks accurately ripped

End of status report

==== Log checksum 35030A3002ABA8388BAFFF8EA84196497F24E27060F7F47C4230B40582EFB03A ====



Create a new paste based on this one


Comments: