[ create a new paste ] login | about

Link: http://codepad.org/LpDwBJnU    [ raw code | fork ]

Plain Text, pasted on Mar 3:
foobar2000 1.5 / Dynamic Range Meter 1.1.1
log date: 2020-03-04 00:13:47

--------------------------------------------------------------------------------
Analyzed: The Mystic Moods Orchestra / Cosmic Force
--------------------------------------------------------------------------------

DR         Peak         RMS     Duration Track
--------------------------------------------------------------------------------
DR12      -0.07 dB   -15.89 dB      4:08 01-I Am, It Is
DR12      -1.41 dB   -17.60 dB      2:05 02-Universal Mind
DR13      -0.34 dB   -16.64 dB      3:55 03-Stragglers And Newcomers
DR13      -0.28 dB   -16.18 dB      3:34 04-The First Day Of Forever
DR13       0.00 dB   -16.38 dB      2:38 05-Cosmic Sea
DR12      -3.45 dB   -19.13 dB      3:52 06-The Awakening
DR14      -0.03 dB   -17.09 dB     10:18 07-Four Square City
DR13      -3.83 dB   -19.67 dB      3:37 08-The Seventh Plane
--------------------------------------------------------------------------------

Number of tracks:  8
Official DR value: DR13

Samplerate:        44100 Hz
Channels:          2
Bits per sample:   16
Bitrate:           836 kbps
Codec:             FLAC
================================================================================




Create a new paste based on this one


Comments: