[ create a new paste ] login | about

Link: http://codepad.org/Lux9hDe1    [ raw code | fork ]

Plain Text, pasted on Aug 19:
foobar2000 1.3.17 / Dynamic Range Meter 1.1.1
log date: 2018-08-18 20:04:59

--------------------------------------------------------------------------------
Analyzed: John Mellencamp / Plain Spoken - From The Chicago Theatre
--------------------------------------------------------------------------------

DR         Peak         RMS     Duration Track
--------------------------------------------------------------------------------
DR10      -0.05 dB   -11.67 dB      4:32 01-Lawless Times
DR11      -0.04 dB   -12.10 dB      4:05 02-Troubled Man
DR11      -0.07 dB   -11.74 dB      4:21 03-Minutes To Memories
DR10       0.00 dB   -12.75 dB      5:09 04-Small Town
DR9       -0.92 dB   -11.55 dB      3:50 05-Stones In My Passway
DR10       0.00 dB   -11.27 dB      3:25 06-Pop Singer
DR9        0.00 dB   -10.44 dB      5:18 07-Check It Out
DR16      -0.40 dB   -20.01 dB      4:01 08-Longest Days
DR14      -0.19 dB   -17.53 dB      4:01 09-The Full Catastrophe
DR10      -0.69 dB   -11.59 dB      2:59 10-My Soul's Got Wings
DR12      -0.15 dB   -15.69 dB      3:06 11-Overture
DR9        0.00 dB   -11.34 dB      4:50 12-Rain On The Scarecrow
DR9        0.00 dB   -11.85 dB      4:39 13-Paper In Fire
DR9        0.00 dB   -10.49 dB      4:36 14-Authority Song
DR9        0.00 dB   -12.41 dB      7:15 15-Pink Houses
DR10       0.00 dB   -11.84 dB      6:03 16-Cherry Bomb
--------------------------------------------------------------------------------

Number of tracks:  16
Official DR value: DR11

Samplerate:        44100 Hz
Channels:          2
Bits per sample:   16
Bitrate:           978 kbps
Codec:             FLAC
================================================================================




Create a new paste based on this one


Comments: