[ create a new paste ] login | about

Link: http://codepad.org/LyBFJVNL    [ raw code | fork ]

Plain Text, pasted on Aug 9:
[CUETools log; Date: 8/8/2019 5:06:44 PM; Version: 2.1.5]
Pregap length 00:00:37.
[CTDB TOCID: tEfxHTnOGJzFdaxN._DQ.VgjGWM-] found.
Track | CTDB Status
  1   | (8/8) Accurately ripped
  2   | (8/8) Accurately ripped
  3   | (8/8) Accurately ripped
  4   | (8/8) Accurately ripped
  5   | (8/8) Accurately ripped
  6   | (8/8) Accurately ripped
  7   | (8/8) Accurately ripped
  8   | (8/8) Accurately ripped
  9   | (8/8) Accurately ripped
 10   | (8/8) Accurately ripped
 11   | (8/8) Accurately ripped
 12   | (8/8) Accurately ripped
 13   | (8/8) Accurately ripped
 14   | (8/8) Accurately ripped
[AccurateRip ID: 001bfb2d-0130d517-c60d870e] found.
Track   [  CRC   |   V2   ] Status
 01     [ff1e0476|dc59709c] (04+09/13) Accurately ripped
 02     [35b96074|99216aa3] (04+09/13) Accurately ripped
 03     [66d12173|9bf72058] (05+09/14) Accurately ripped
 04     [b5eacf4b|883b30bc] (05+09/14) Accurately ripped
 05     [824a162e|66c26bfc] (05+09/14) Accurately ripped
 06     [4e9a0054|3124a25a] (05+09/14) Accurately ripped
 07     [07deca98|ae94826a] (05+09/14) Accurately ripped
 08     [9d71e5bd|cc08fdfe] (05+09/14) Accurately ripped
 09     [5b090776|a5390b97] (05+09/14) Accurately ripped
 10     [b4102ab7|cd1d4228] (05+09/14) Accurately ripped
 11     [19aafba0|588a4529] (05+09/14) Accurately ripped
 12     [8d76d62a|4dc55a6f] (05+09/14) Accurately ripped
 13     [d5137f4a|732c9162] (05+09/14) Accurately ripped
 14     [a883663b|14ed9208] (05+09/14) Accurately ripped

Track Peak [ CRC32  ] [W/O NULL] 
 --   80.4 [44A86F3B] [1BB239FD]           
 01   78.2 [AA3B43C6] [7FEFA34A]           
 02   56.8 [76E76ED3] [D6A19EEA]           
 03   76.1 [656F7080] [976C6C41]           
 04   62.4 [CAE71032] [65FF8D05]           
 05   73.8 [40167D0B] [32EAC0A9]           
 06   80.4 [D6BFB1C8] [54FCC5B9]           
 07   78.7 [CD609814] [3F1D1EB1]           
 08   58.6 [C0A49A93] [F50AF90D]           
 09   77.6 [EB2B1813] [7541E082]           
 10   74.1 [682E99AE] [E373870E]           
 11   75.6 [55786C47] [6C334B91]           
 12   64.7 [8D035E76] [11601895]           
 13   72.4 [146A43DF] [250B65A4]           
 14   71.7 [0DFE9E54] [A6A2D184]           



Create a new paste based on this one


Comments: