[ create a new paste ] login | about

Link: http://codepad.org/M0eeK6F4    [ raw code | fork ]

Plain Text, pasted on Jun 2:
Exact Audio Copy V1.1 from 23. June 2015

EAC extraction logfile from 1. June 2017, 13:30

Roger Waters / Is This The Life We Really Want?

Used drive  : HL-DT-STDVDRAM GUC0N   Adapter: 1  ID: 0

Read mode               : Secure
Utilize accurate stream : Yes
Defeat audio cache      : Yes
Make use of C2 pointers : No

Read offset correction                      : 6
Overread into Lead-In and Lead-Out          : No
Fill up missing offset samples with silence : Yes
Delete leading and trailing silent blocks   : No
Null samples used in CRC calculations       : Yes
Used interface                              : Native Win32 interface for Win NT & 2000
Gap handling                                : Appended to previous track

Used output format              : User Defined Encoder
Selected bitrate                : 1024 kBit/s
Quality                         : High
Add ID3 tag                     : No
Command line compressor         : C:\Program Files (x86)\Exact Audio Copy\Flac\flac.exe
Additional command line options : -8 -V -T "ARTIST=%artist%" -T "TITLE=%title%" -T "ALBUM=%albumtitle%" -T "DATE=%year%" -T "TRACKNUMBER=%tracknr%" -T "TOTALTRACKS=%numtracks%" -T "GENRE=%genre%" -T "ALBUMARTIST=%albumartist%" -T "ALBUM ARTIST=%albumartist%" -T "COMMENT=EAC Secure Mode, Test & Copy, AccurateRip, FLAC -8" %source%


TOC of the extracted CD

     Track |   Start  |  Length  | Start sector | End sector 
    ---------------------------------------------------------
        1  |  0:00.00 |  1:39.43 |         0    |     7467   
        2  |  1:39.43 |  4:27.34 |      7468    |    27526   
        3  |  6:07.02 |  4:12.56 |     27527    |    46482   
        4  | 10:19.58 |  6:47.73 |     46483    |    77080   
        5  | 17:07.56 |  4:57.53 |     77081    |    99408   
        6  | 22:05.34 |  5:55.04 |     99409    |   126037   
        7  | 28:00.38 |  5:31.29 |    126038    |   150891   
        8  | 33:31.67 |  6:09.05 |    150892    |   178571   
        9  | 39:40.72 |  5:15.72 |    178572    |   202268   
       10  | 44:56.69 |  4:56.09 |    202269    |   224477   
       11  | 49:53.03 |  1:07.57 |    224478    |   229559   
       12  | 51:00.60 |  3:14.32 |    229560    |   244141   


Track  1

     Filename D:\My RIPS\Roger Wotter - Is This Life We Really Want 2017\01 - When We Were Young.wav

     Pre-gap length  0:00:02.00

     Peak level 86.2 %
     Extraction speed 0.7 X
     Track quality 99.8 %
     Test CRC 58D902A3
     Copy CRC 58D902A3
     Track not present in AccurateRip database
     Copy OK

Track  2

     Filename D:\My RIPS\Roger Wotter - Is This Life We Really Want 2017\02 - Deja Vu.wav

     Peak level 100.0 %
     Extraction speed 1.2 X
     Track quality 100.0 %
     Test CRC 554BD479
     Copy CRC 554BD479
     Track not present in AccurateRip database
     Copy OK

Track  3

     Filename D:\My RIPS\Roger Wotter - Is This Life We Really Want 2017\03 - The Last Refugee.wav

     Peak level 99.5 %
     Extraction speed 1.3 X
     Track quality 100.0 %
     Test CRC 98A8C5DF
     Copy CRC 98A8C5DF
     Track not present in AccurateRip database
     Copy OK

Track  4

     Filename D:\My RIPS\Roger Wotter - Is This Life We Really Want 2017\04 - Picture That.wav

     Peak level 100.0 %
     Extraction speed 1.6 X
     Track quality 100.0 %
     Test CRC EED83C92
     Copy CRC EED83C92
     Track not present in AccurateRip database
     Copy OK

Track  5

     Filename D:\My RIPS\Roger Wotter - Is This Life We Really Want 2017\05 - Broken Bones.wav

     Peak level 100.0 %
     Extraction speed 1.7 X
     Track quality 100.0 %
     Test CRC D6DCF7C9
     Copy CRC D6DCF7C9
     Track not present in AccurateRip database
     Copy OK

Track  6

     Filename D:\My RIPS\Roger Wotter - Is This Life We Really Want 2017\06 - Is This The Life We Really Want.wav

     Peak level 100.0 %
     Extraction speed 1.8 X
     Track quality 100.0 %
     Test CRC DBE326A5
     Copy CRC 4FC697BC
     Track not present in AccurateRip database
     Copy OK

Track  7

     Filename D:\My RIPS\Roger Wotter - Is This Life We Really Want 2017\07 - Bird in A Gale.wav

     Peak level 100.0 %
     Extraction speed 1.8 X
     Track quality 99.9 %
     Test CRC 571DC3EF
     Copy CRC EC025551
     Track not present in AccurateRip database
     Copy OK

Track  8

     Filename D:\My RIPS\Roger Wotter - Is This Life We Really Want 2017\08 - The Most Beautiful Girl.wav

     Peak level 99.1 %
     Extraction speed 1.9 X
     Track quality 99.9 %
     Test CRC 4C379853
     Copy CRC 77421332
     Track not present in AccurateRip database
     Copy OK

Track  9

     Filename D:\My RIPS\Roger Wotter - Is This Life We Really Want 2017\09 - Smell The Roses.wav

     Peak level 100.0 %
     Extraction speed 2.2 X
     Track quality 100.0 %
     Test CRC 04555711
     Copy CRC 04555711
     Track not present in AccurateRip database
     Copy OK

Track 10

     Filename D:\My RIPS\Roger Wotter - Is This Life We Really Want 2017\10 - Wait for Her.wav

     Peak level 100.0 %
     Extraction speed 2.0 X
     Track quality 99.9 %
     Test CRC 0E11EEB9
     Copy CRC 0E11EEB9
     Track not present in AccurateRip database
     Copy OK

Track 11

     Filename D:\My RIPS\Roger Wotter - Is This Life We Really Want 2017\11 - Oceans Apart.wav

     Peak level 98.9 %
     Extraction speed 0.7 X
     Track quality 99.3 %
     Test CRC D8C4F6FB
     Copy CRC D8C4F6FB
     Track not present in AccurateRip database
     Copy OK

Track 12

     Filename D:\My RIPS\Roger Wotter - Is This Life We Really Want 2017\12 - Part of Me Died.wav

     Peak level 100.0 %
     Extraction speed 1.7 X
     Track quality 99.8 %
     Test CRC 24C8AF8D
     Copy CRC 24C8AF8D
     Track not present in AccurateRip database
     Copy OK


None of the tracks are present in the AccurateRip database

No errors occurred

End of status report

---- CUETools DB Plugin V2.1.6

[CTDB TOCID: 9oIuwi5axIRp0baLSzBsVgtv0Uw-] found
Submit result: insufficient quality
Track | CTDB Status
  1   | (2/2) Accurately ripped
  2   | (2/2) Accurately ripped
  3   | (2/2) Accurately ripped
  4   | (2/2) Accurately ripped
  5   | (2/2) Accurately ripped
  6   | (1/2) Differs in 7 samples @03:55:54, or (1/2) differs in 7 samples @03:55:54
  7   | (2/2) Accurately ripped
  8   | (1/2) Differs in 61 samples @04:58:02, or (1/2) differs in 61 samples @04:58:02
  9   | (2/2) Accurately ripped
 10   | (1/2) Differs in 19 samples @04:11:07, or (1/2) differs in 19 samples @04:11:07
 11   | (1/2) Accurately ripped, or (1/2) differs in 17 samples @01:01:10,01:07:11
 12   | (1/2) Accurately ripped, or (1/2) differs in 75 samples @01:20:47,01:53:19,02:42:34,02:47:45,02:49:24
If you are sure that your rip contains errors, you can use CUETools to repair it.


==== Log checksum 8D2E631118148874EC8B23D95036A6B77760729F2EFD4882755AEEB3B81BD128 ====



Create a new paste based on this one


Comments: