[ create a new paste ] login | about

Link: http://codepad.org/M19Dkmcv    [ raw code | fork ]

Plain Text, pasted on Mar 22:
foobar2000 1.4.1 / Dynamic Range Meter 1.1.1
log date: 2019-03-22 09:50:49

--------------------------------------------------------------------------------
Analyzed: Toto / 40 Tours Around The Sun
--------------------------------------------------------------------------------

DR         Peak         RMS     Duration Track
--------------------------------------------------------------------------------
DR8       -0.25 dB   -11.27 dB      0:36 01-Intro Tape
DR7       -0.25 dB    -7.90 dB      4:34 02-Alone
DR7       -0.25 dB    -7.95 dB      4:00 03-Hold The Line
DR6       -0.25 dB    -7.49 dB      5:17 04-Lovers In The Night
DR6       -0.25 dB    -7.69 dB      4:46 05-Spanish Sea
DR6       -0.25 dB    -6.95 dB      7:01 06-I Will Remember
DR7       -0.25 dB    -8.94 dB      7:19 07-English Eyes
DR8       -0.25 dB    -9.28 dB      8:06 08-Jake To The Bone
DR8       -0.25 dB    -9.40 dB      4:38 09-Lea
DR6       -0.25 dB    -7.63 dB      8:18 10-Rosanna
DR7       -0.25 dB    -9.17 dB      3:45 11-Miss Sun
DR9       -0.25 dB   -11.25 dB      2:06 12-Georgy Porgy
DR9       -0.25 dB   -10.68 dB      2:13 13-Human Nature
DR6       -0.25 dB    -8.33 dB      1:49 14-Holyanna
DR7       -0.25 dB    -8.37 dB      2:09 15-No Love
--------------------------------------------------------------------------------

Number of tracks:  15
Official DR value: DR7

Samplerate:        96000 Hz
Channels:          2
Bits per sample:   24
Bitrate:           3172 kbps
Codec:             FLAC
================================================================================

foobar2000 1.4.1 / Dynamic Range Meter 1.1.1
log date: 2019-03-22 09:51:56

--------------------------------------------------------------------------------
Analyzed: Toto / 40 Tours Around The Sun
--------------------------------------------------------------------------------

DR         Peak         RMS     Duration Track
--------------------------------------------------------------------------------
DR7       -0.25 dB    -9.98 dB      3:24 16-Mushanga
DR6       -0.25 dB    -8.47 dB      2:49 17-Stop Loving You
DR6       -0.25 dB    -7.05 dB      6:40 18-Girl Goodbye
DR6       -0.25 dB    -8.93 dB      5:23 19-Angela
DR5       -0.25 dB    -6.59 dB      6:45 20-Lion
DR6       -0.25 dB    -7.71 dB      6:03 21-Dune (Desert Theme)
DR6       -0.25 dB    -7.68 dB      6:22 22-While My Guitar Gently Weeps
DR5       -0.25 dB    -6.36 dB      4:35 23-Stranger In Town
DR6       -0.25 dB    -7.11 dB      4:30 24-Make Believe
DR5       -0.25 dB    -7.52 dB     12:36 25-Africa
DR6       -0.25 dB    -7.82 dB      4:08 26-The Road Goes On
--------------------------------------------------------------------------------

Number of tracks:  11
Official DR value: DR6

Samplerate:        96000 Hz
Channels:          2
Bits per sample:   24
Bitrate:           3158 kbps
Codec:             FLAC
================================================================================




Create a new paste based on this one


Comments: