[ create a new paste ] login | about

Link: http://codepad.org/M6HrDw6H    [ raw code | fork ]

Plain Text, pasted on Jul 8:
foobar2000 1.5 / Dynamic Range Meter 1.1.1
log date: 2020-07-08 01:28:13

--------------------------------------------------------------------------------
Analyzed: Elton John / Goodbye Yellow Brick Road
--------------------------------------------------------------------------------

DR         Peak         RMS     Duration Track
--------------------------------------------------------------------------------
DR11      -4.80 dB   -19.87 dB     11:08 01-Funeral For A Friend / Love Lies Bleeding
DR11      -5.88 dB   -20.65 dB      3:48 02-Candle In The Wind
DR12      -6.20 dB   -21.02 dB      5:23 03-Bennie And The Jets
DR13      -4.45 dB   -21.15 dB      3:14 04-Goodbye Yellow Brick Road
DR11      -6.44 dB   -21.21 dB      2:23 05-This Song Has No Title
DR11      -4.39 dB   -19.57 dB      4:00 06-Grey Seal
DR13      -5.32 dB   -20.10 dB      3:38 07-Jamaica Jerk-Off
DR13      -5.06 dB   -21.88 dB      6:00 08-I've Seen That Movie Too
DR13      -5.86 dB   -21.75 dB      3:54 09-Sweet Painted Lady
DR11      -4.85 dB   -19.42 dB      4:24 10-The Ballad Of Danny Bailey (1909-34)
DR12      -3.70 dB   -19.56 dB      5:03 11-Dirty Little Girl
DR12      -5.01 dB   -20.40 dB      5:09 12-All The Girls Love Alice
DR11      -4.87 dB   -18.80 dB      2:42 13-Your Sister Can't Twist (But She Can Rock 'N Roll)
DR12      -5.00 dB   -18.53 dB      4:55 14-Saturday Night's Alright For Fighting
DR12      -6.35 dB   -20.52 dB      4:08 15-Roy Rogers
DR12      -5.29 dB   -19.87 dB      3:42 16-Social Disease
DR12      -4.61 dB   -19.98 dB      2:47 17-Harmony
--------------------------------------------------------------------------------

Number of tracks:  17
Official DR value: DR12

Samplerate:        2822400 Hz / PCM Samplerate: 176400 Hz
Channels:          2
Bits per sample:   1
Bitrate:           5645 kbps
Codec:             DSD64
================================================================================




Create a new paste based on this one


Comments: