[ create a new paste ] login | about

Link: http://codepad.org/MBG5novy    [ raw code | fork ]

Plain Text, pasted on Sep 19:
foobar2000 1.4.6 / Dynamic Range Meter 1.1.1
log date: 2019-09-19 10:29:15

--------------------------------------------------------------------------------
Analyzed: Liam Gallagher / Why Me? Why Not. (Deluxe Edition)
--------------------------------------------------------------------------------

DR         Peak         RMS     Duration Track
--------------------------------------------------------------------------------
DR5       -0.17 dB    -6.06 dB      3:31 01-Shockwave
DR4        0.00 dB    -5.55 dB      3:25 02-One of Us
DR5        0.00 dB    -6.76 dB      3:34 03-Once
DR5        0.00 dB    -6.36 dB      3:21 04-Now That I've Found You
DR4       -0.80 dB    -5.56 dB      3:59 05-Halo
DR4       -0.01 dB    -5.25 dB      3:39 06-Why Me? Why Not.
DR5       -0.20 dB    -5.70 dB      3:00 07-Be Still
DR5        0.00 dB    -6.97 dB      3:48 08-Alright Now
DR4       -1.57 dB    -6.12 dB      4:06 09-Meadow
DR4        0.00 dB    -4.82 dB      3:29 10-The River
DR5       -0.01 dB    -5.75 dB      3:46 11-Gone
DR4        0.00 dB    -4.73 dB      3:35 12-Invisible Sun
DR6        0.00 dB    -6.89 dB      4:17 13-Misunderstood
DR4       -0.19 dB    -5.42 dB      3:41 14-Glimmer
--------------------------------------------------------------------------------

Number of tracks:  14
Official DR value: DR5

Samplerate:        44100 Hz
Channels:          2
Bits per sample:   16
Bitrate:           923 kbps
Codec:             FLAC
================================================================================




Create a new paste based on this one


Comments: