[ create a new paste ] login | about

Link: http://codepad.org/MEeLe3uR    [ raw code | fork ]

Plain Text, pasted on Aug 22:
Exact Audio Copy V1.0 beta 3 from 29. August 2011

EAC extraction logfile from 20. December 2014, 5:52

Andy Jackson / Signal To Noise (EANTCD1040)

Used drive  : MATSHITABD-CMB UJ242AS   Adapter: 0  ID: 1

Read mode               : Secure
Utilize accurate stream : Yes
Defeat audio cache      : Yes
Make use of C2 pointers : No

Read offset correction                      : 103
Overread into Lead-In and Lead-Out          : No
Fill up missing offset samples with silence : Yes
Delete leading and trailing silent blocks   : No
Null samples used in CRC calculations       : Yes
Used interface                              : Installed external ASPI interface

Used output format              : User Defined Encoder
Selected bitrate                : 1024 kBit/s
Quality                         : High
Add ID3 tag                     : Yes
Command line compressor         : C:\Program Files (x86)\Exact Audio Copy\Flac\flac.exe
Additional command line options : -V -8 -T "Date=%year%" -T "Genre=%genre%" %source%


TOC of the extracted CD

     Track |   Start  |  Length  | Start sector | End sector 
    ---------------------------------------------------------
        1  |  0:00.00 |  7:09.26 |         0    |    32200   
        2  |  7:09.26 |  4:21.38 |     32201    |    51813   
        3  | 11:30.64 |  4:48.55 |     51814    |    73468   
        4  | 16:19.44 |  3:32.34 |     73469    |    89402   
        5  | 19:52.03 |  9:54.30 |     89403    |   133982   
        6  | 29:46.33 |  3:49.41 |    133983    |   151198   
        7  | 33:35.74 |  7:18.50 |    151199    |   184098   


Range status and errors

Selected range

     Filename C:\EACrip\Andy Jackson - Signal To Noise (EANTCD1040).wav

     Peak level 99.3 %
     Extraction speed 2.4 X
     Range quality 100.0 %
     Test CRC 92B4850B
     Copy CRC 92B4850B
     Copy OK

No errors occurred

 
AccurateRip summary
 
Track  1  not present in database
Track  2  not present in database
Track  3  not present in database
Track  4  not present in database
Track  5  not present in database
Track  6  not present in database
Track  7  not present in database
 
None of the tracks are present in the AccurateRip database

End of status report

==== Log checksum 1DF7CC7402F277B5FF8745F8DB7871246DD2877799E2C409C1C7B47687E382E8 ====



Create a new paste based on this one


Comments: