[ create a new paste ] login | about

Link: http://codepad.org/MGQ0DvrO    [ raw code | fork ]

Plain Text, pasted on Dec 7:
foobar2000 1.3.17 / Dynamic Range Meter 1.1.1
log date: 2018-12-07 11:03:52

--------------------------------------------------------------------------------
Analyzed: Kate Bush / Never For Ever (1980) - Remastered Part I
--------------------------------------------------------------------------------

DR         Peak         RMS     Duration Track
--------------------------------------------------------------------------------
DR12      -0.95 dB   -16.29 dB      3:19 01-Babooshka (2018 Remaster)
DR12      -4.30 dB   -19.02 dB      2:51 02-Delius (2018 Remaster)
DR14      -1.36 dB   -17.83 dB      3:34 03-Blow Away (2018 Remaster)
DR13      -1.63 dB   -17.83 dB      3:48 04-All We Ever Look For (2018 Remaster)
DR12      -1.26 dB   -16.81 dB      4:11 05-Egypt (2018 Remaster)
DR13      -0.42 dB   -15.93 dB      4:15 06-The Wedding List (2018 Remaster)
DR12      -1.61 dB   -15.08 dB      3:15 07-Violin (2018 Remaster)
DR12      -2.42 dB   -17.81 dB      2:49 08-The Infant Kiss (2018 Remaster)
DR10      -5.45 dB   -21.62 dB      0:52 09-Night Scented Stock (2018 Remaster)
DR13      -2.16 dB   -18.33 dB      2:59 10-Army Dreamers (2018 Remaster)
DR13      -0.70 dB   -17.38 dB      5:30 11-Breathing (2018 Remaster)
--------------------------------------------------------------------------------

Number of tracks:  11
Official DR value: DR12

Samplerate:        44100 Hz
Channels:          2
Bits per sample:   16
Bitrate:           738 kbps
Codec:             FLAC
================================================================================




Create a new paste based on this one


Comments: