[ create a new paste ] login | about

Link: http://codepad.org/MHoMH4nT    [ raw code | fork ]

Plain Text, pasted on Oct 29:
foobar2000 1.4.6 / Dynamic Range Meter 1.1.1
log date: 2019-10-29 11:26:36

--------------------------------------------------------------------------------
Analyzed: VARIOUS / 1977-1987 Fusion- Best Sound Selection [Crossover Golden Age] by Yoshio Obara
--------------------------------------------------------------------------------

DR         Peak         RMS     Duration Track
--------------------------------------------------------------------------------
DR13      -0.09 dB   -15.84 dB      4:42 01-Morning Island
DR14      -0.60 dB   -19.61 dB      3:52 02-Keepin' Score
DR16      -0.01 dB   -17.61 dB      4:59 03-Suicide Freak
DR15      -0.46 dB   -18.27 dB      3:58 04-Sentimental Journey
DR14      -2.33 dB   -17.91 dB      4:52 05-High Pressure
DR13      -1.41 dB   -17.40 dB      3:27 06-Silent Communication
DR15      -0.70 dB   -17.74 dB      7:14 07-Super Safari
DR16      -3.12 dB   -22.57 dB      4:24 08-Stay Close
DR13      -1.20 dB   -16.16 dB      5:45 09-Soap Dancer
DR13      -1.26 dB   -18.30 dB      6:48 10-Gently
DR14      -0.24 dB   -16.15 dB      4:13 11-Sunburst
DR16      -0.65 dB   -20.48 dB      6:29 12-With Our Soul
DR14      -1.45 dB   -19.46 dB      5:56 13-My Dear Life
--------------------------------------------------------------------------------

Number of tracks:  13
Official DR value: DR14

Samplerate:        88200 Hz
Channels:          2
Bits per sample:   24
Bitrate:           2380 kbps
Codec:             FLAC
================================================================================




Create a new paste based on this one


Comments: