[ create a new paste ] login | about

Link: http://codepad.org/MHtF8ZUf    [ raw code | fork ]

Plain Text, pasted on Jan 7:
[CUETools log; Date: 1/6/2017 6:01:33 PM; Version: 2.1.5]
Pregap length 00:00:32.
[CTDB TOCID: 27mxp5gvzXbBSZ4rLgXRFBpa2Ds-] found.
Track | CTDB Status
  1   | (116/125) Accurately ripped
  2   | (115/125) Accurately ripped
  3   | (116/125) Accurately ripped
  4   | (115/125) Accurately ripped
  5   | (115/125) Accurately ripped
  6   | (116/125) Accurately ripped
  7   | (115/125) Accurately ripped
  8   | (115/125) Accurately ripped
  9   | (115/125) Accurately ripped
 10   | (117/125) Accurately ripped
[AccurateRip ID: 000d7b26-006c0504-7d089a0a] found.
Track   [  CRC   |   V2   ] Status
 01     [06e0049a|80b20914] (029+040/174) Accurately ripped
 02     [6d24b83f|f6aecfb1] (028+040/171) Accurately ripped
 03     [edd7148e|c93250fa] (028+041/171) Accurately ripped
 04     [e393c4c4|7c8e2de5] (028+040/171) Accurately ripped
 05     [e0e05a31|94e027f3] (029+040/171) Accurately ripped
 06     [e130368b|2c9933ec] (030+039/171) Accurately ripped
 07     [6ea4cb9a|0f4ee29d] (029+039/169) Accurately ripped
 08     [71ea2291|a1e5c566] (029+039/168) Accurately ripped
 09     [92917cdf|2e66ed24] (030+040/172) Accurately ripped
 10     [33dd878f|2e697554] (030+039/174) Accurately ripped
Offsetted by 667:
 01     [7bdc525a] (032/174) Accurately ripped
 02     [d25a5893] (031/171) Accurately ripped
 03     [bd4abb34] (031/171) Accurately ripped
 04     [d97edf55] (031/171) Accurately ripped
 05     [d9fa43e0] (030/171) Accurately ripped
 06     [f63dc7f9] (030/171) Accurately ripped
 07     [137319c4] (030/169) Accurately ripped
 08     [1737e207] (029/168) Accurately ripped
 09     [4d35abf3] (030/172) Accurately ripped
 10     [077112eb] (031/174) Accurately ripped
Offsetted by 2017:
 01     [143341da] (005/174) Accurately ripped
 02     [063b20f6] (004/171) Accurately ripped
 03     [acc53e5f] (005/171) Accurately ripped
 04     [25484f3d] (005/171) Accurately ripped
 05     [6150df0e] (005/171) Accurately ripped
 06     [e924390a] (005/171) Accurately ripped
 07     [48be372b] (005/169) Accurately ripped
 08     [09ffc8cf] (005/168) Accurately ripped
 09     [339651db] (005/172) Accurately ripped
 10     [6be5c6e3] (005/174) Accurately ripped
Offsetted by 2696:
 01     [4bf64e9a] (013/174) Accurately ripped
 02     [9cc00cdf] (012/171) Accurately ripped
 03     [8b4bb4d2] (012/171) Accurately ripped
 04     [e3398ef8] (012/171) Accurately ripped
 05     [8a44de99] (012/171) Accurately ripped
 06     [9325c648] (012/171) Accurately ripped
 07     [b9f27351] (012/169) Accurately ripped
 08     [6d84ae01] (012/168) Accurately ripped
 09     [830cb6bf] (012/172) Accurately ripped
 10     [cd73882f] (013/174) Accurately ripped

Track Peak [ CRC32  ] [W/O NULL] [  LOG   ]
 --   99.3 [C9EC3489] [D7649D23]   CRC32   
 01   97.4 [8BEAC170] [CF265210]           
 02   92.6 [C2DD5640] [70B09DE0]           
 03   86.7 [3A4FD74D] [DB2897F6]           
 04   93.5 [13663860] [AEF625F8]           
 05   81.9 [5AA6A9C5] [D6A2A7A0]           
 06   95.2 [8D6A81A3] [5BB69570]           
 07   91.0 [EEA106F6] [CC3E116E]           
 08   99.3 [E2B32FA9] [788DE45E]           
 09   96.8 [20EDC8D2] [BD5DB994]           
 10   92.6 [EAC50214] [0AD6D5C9]           



Create a new paste based on this one


Comments: