[ create a new paste ] login | about

Link: http://codepad.org/MM8vdgl1    [ raw code | fork ]

Plain Text, pasted on Jun 20:
Exact Audio Copy V0.99 prebeta 5 from 4. May 2009

EAC extraction logfile from 19. June 2016, 14:28

Jack Bruce / Sunshine Ff Your Live - A Live In Music (2 of 2)

Used drive  : ATAPI   iHAS122   C   Adapter: 1  ID: 1

Read mode               : Secure
Utilize accurate stream : Yes
Defeat audio cache      : Yes
Make use of C2 pointers : No

Read offset correction                      : 6
Overread into Lead-In and Lead-Out          : No
Fill up missing offset samples with silence : Yes
Delete leading and trailing silent blocks   : No
Null samples used in CRC calculations       : Yes
Used interface                              : Native Win32 interface for Win NT & 2000

Used output format : Internal WAV Routines
Sample format      : 44.100 Hz; 16 Bit; Stereo


TOC of the extracted CD

     Track |   Start  |  Length  | Start sector | End sector 
    ---------------------------------------------------------
        1  |  0:00.00 |  5:47.50 |         0    |    26074   
        2  |  5:47.50 |  4:11.28 |     26075    |    44927   
        3  |  9:59.03 |  3:28.72 |     44928    |    60599   
        4  | 13:28.00 |  4:12.08 |     60600    |    79507   
        5  | 17:40.08 |  6:25.05 |     79508    |   108387   
        6  | 24:05.13 |  5:23.34 |    108388    |   132646   
        7  | 29:28.47 |  5:21.17 |    132647    |   156738   
        8  | 34:49.64 |  3:56.43 |    156739    |   174481   
        9  | 38:46.32 |  3:41.65 |    174482    |   191121   
       10  | 42:28.22 |  5:24.28 |    191122    |   215449   
       11  | 47:52.50 |  3:55.60 |    215450    |   233134   
       12  | 51:48.35 |  4:20.24 |    233135    |   252658   
       13  | 56:08.59 |  4:35.62 |    252659    |   273345   
       14  | 60:44.46 |  6:20.74 |    273346    |   301919   
       15  | 67:05.45 |  5:06.22 |    301920    |   324891   


Range status and errors

Selected range

     Filename C:\Users\Arturs\Desktop\Jack Bruce - Sunshine Ff Your Live - A Live In Music (2 of 2).wav

     Peak level 98.8 %
     Range quality 100.0 %
     Test CRC 22067632
     Copy CRC 22067632
     Copy OK

No errors occurred

 
AccurateRip summary
 
Track  1  cannot be verified as accurate (confidence 2)  [95830BDB], AccurateRip returned [9AA0F8F4]
Track  2  cannot be verified as accurate (confidence 2)  [5412EF9E], AccurateRip returned [DFD693B2]
Track  3  cannot be verified as accurate (confidence 2)  [4B7F52A2], AccurateRip returned [FE2FD53C]
Track  4  cannot be verified as accurate (confidence 2)  [31AC260B], AccurateRip returned [55FE1E11]
Track  5  cannot be verified as accurate (confidence 2)  [4D7833B2], AccurateRip returned [011DCAC2]
Track  6  cannot be verified as accurate (confidence 2)  [89FC9548], AccurateRip returned [719A3144]
Track  7  cannot be verified as accurate (confidence 2)  [0BC08C20], AccurateRip returned [7FB48719]
Track  8  cannot be verified as accurate (confidence 2)  [78ADDE10], AccurateRip returned [D7DE90C5]
Track  9  cannot be verified as accurate (confidence 2)  [9C930960], AccurateRip returned [FB7E1EF9]
Track 10  cannot be verified as accurate (confidence 2)  [993844DF], AccurateRip returned [D1F56430]
Track 11  cannot be verified as accurate (confidence 2)  [E973BBC3], AccurateRip returned [CE16FA49]
Track 12  cannot be verified as accurate (confidence 2)  [F9C3D5EE], AccurateRip returned [80DB5A1A]
Track 13  cannot be verified as accurate (confidence 2)  [2A565BBE], AccurateRip returned [C08E6C1C]
Track 14  cannot be verified as accurate (confidence 2)  [6AA1B9FC], AccurateRip returned [920474FF]
Track 15  cannot be verified as accurate (confidence 2)  [CA51FD61], AccurateRip returned [1A0922FF]
 
No tracks could be verified as accurate
You may have a different pressing from the one(s) in the database

End of status report



Create a new paste based on this one


Comments: