[ create a new paste ] login | about

Link: http://codepad.org/MNQWpb0C    [ raw code | fork ]

Plain Text, pasted on Apr 24:
Exact Audio Copy V0.99 prebeta 5 from 4. May 2009

EAC extraction logfile from 19. February 2011, 21:10

Little Richard / The Specialty Sessions 6CD. CD1

Used drive  : PLEXTOR CD-R   PREMIUM   Adapter: 0  ID: 1

Read mode               : Secure
Utilize accurate stream : Yes
Defeat audio cache      : Yes
Make use of C2 pointers : No

Read offset correction                      : 30
Overread into Lead-In and Lead-Out          : No
Fill up missing offset samples with silence : Yes
Delete leading and trailing silent blocks   : No
Null samples used in CRC calculations       : Yes
Used interface                              : Installed external ASPI interface

Used output format              : User Defined Encoder
Selected bitrate                : 768 kBit/s
Quality                         : High
Add ID3 tag                     : No
Command line compressor         : D:\Program Files\Exact Audio Copy\FLAC\FLAC.EXE
Additional command line options : -8 -V -T "ARTIST=%a" -T "TITLE=%t" -T "ALBUM=%g" -T "DATE=%y" -T "TRACKNUMBER=%n" -T "GENRE=%m" -T "COMMENT=EAC FLAC -8" %s


TOC of the extracted CD

     Track |   Start  |  Length  | Start sector | End sector 
    ---------------------------------------------------------
        1  |  0:00.33 |  4:21.17 |        33    |    19624   
        2  |  4:21.50 |  2:48.30 |     19625    |    32254   
        3  |  7:10.05 |  2:39.25 |     32255    |    44204   
        4  |  9:49.30 |  2:06.15 |     44205    |    53669   
        5  | 11:55.45 |  2:45.68 |     53670    |    66112   
        6  | 14:41.38 |  2:19.10 |     66113    |    76547   
        7  | 17:00.48 |  2:48.50 |     76548    |    89197   
        8  | 19:49.23 |  2:51.45 |     89198    |   102067   
        9  | 22:40.68 |  2:18.32 |    102068    |   112449   
       10  | 24:59.25 |  2:15.38 |    112450    |   122612   
       11  | 27:14.63 |  2:18.47 |    122613    |   133009   
       12  | 29:33.35 |  2:10.23 |    133010    |   142782   
       13  | 31:43.58 |  3:31.32 |    142783    |   158639   
       14  | 35:15.15 |  2:14.70 |    158640    |   168759   
       15  | 37:30.10 |  2:23.68 |    168760    |   179552   
       16  | 39:54.03 |  2:22.25 |    179553    |   190227   
       17  | 42:16.28 |  2:07.40 |    190228    |   199792   
       18  | 44:23.68 |  2:56.40 |    199793    |   213032   
       19  | 47:20.33 |  2:37.55 |    213033    |   224862   
       20  | 49:58.13 |  2:27.65 |    224863    |   235952   
       21  | 52:26.03 |  2:23.40 |    235953    |   246717   


Range status and errors

Selected range

     Filename I:\Little Richard - 6CD\cd1\Little Richard - The Specialty Sessions 6CD. CD1.wav

     Peak level 91.1 %
     Range quality 100.0 %
     Test CRC 7F515A93
     Copy CRC 7F515A93
     Copy OK

No errors occurred

 
AccurateRip summary
 
Track  1  accurately ripped (confidence 5)  [7B8C8477]
Track  2  accurately ripped (confidence 5)  [8D959406]
Track  3  accurately ripped (confidence 5)  [93F62C38]
Track  4  accurately ripped (confidence 5)  [0E5EB38C]
Track  5  accurately ripped (confidence 5)  [1D9CEC94]
Track  6  accurately ripped (confidence 5)  [352B8FF4]
Track  7  accurately ripped (confidence 5)  [E488A7AC]
Track  8  accurately ripped (confidence 5)  [6ECB0002]
Track  9  accurately ripped (confidence 5)  [21E4A0B9]
Track 10  accurately ripped (confidence 5)  [E349E001]
Track 11  accurately ripped (confidence 5)  [B51600E5]
Track 12  accurately ripped (confidence 5)  [A39B4795]
Track 13  accurately ripped (confidence 5)  [9CC9951C]
Track 14  accurately ripped (confidence 5)  [50A3D4CB]
Track 15  accurately ripped (confidence 5)  [105005EC]
Track 16  accurately ripped (confidence 5)  [E507AF75]
Track 17  accurately ripped (confidence 5)  [AB7887BF]
Track 18  accurately ripped (confidence 5)  [BAB3F492]
Track 19  accurately ripped (confidence 5)  [C6C872A8]
Track 20  accurately ripped (confidence 5)  [426A8DF3]
Track 21  accurately ripped (confidence 5)  [979537D4]
 
All tracks accurately ripped

End of status report



Create a new paste based on this one


Comments: