[ create a new paste ] login | about

Link: http://codepad.org/MNyITAuD    [ raw code | fork ]

Plain Text, pasted on Sep 26:
Exact Audio Copy V1.2 from 12. August 2016

EAC extraction logfile from 26. September 2018, 12:25

Paul McCartney / Egypt Station (Limited Edition Concertina CD)

Used drive  : ASUS    SDRW-08D1S-U   Adapter: 1  ID: 1

Read mode               : Secure
Utilize accurate stream : Yes
Defeat audio cache      : Yes
Make use of C2 pointers : No

Read offset correction                      : 667
Overread into Lead-In and Lead-Out          : No
Fill up missing offset samples with silence : Yes
Delete leading and trailing silent blocks   : No
Null samples used in CRC calculations       : Yes
Used interface                              : Native Win32 interface for Win NT & 2000

Used output format              : User Defined Encoder
Selected bitrate                : 128 kBit/s
Quality                         : High
Add ID3 tag                     : No
Command line compressor         : C:\Program Files (x86)\Exact Audio Copy\Flac\flac.exe
Additional command line options : -V -8 -T "Date=%year%" -T "Genre=%genre%" %source%


TOC of the extracted CD

     Track |   Start  |  Length  | Start sector | End sector 
    ---------------------------------------------------------
        1  |  0:00.00 |  0:41.68 |         0    |     3142   
        2  |  0:41.68 |  4:26.70 |      3143    |    23162   
        3  |  5:08.63 |  4:10.42 |     23163    |    41954   
        4  |  9:19.30 |  3:34.08 |     41955    |    58012   
        5  | 12:53.38 |  3:13.17 |     58013    |    72504   
        6  | 16:06.55 |  3:23.54 |     72505    |    87783   
        7  | 19:30.34 |  3:04.51 |     87784    |   101634   
        8  | 22:35.10 |  2:59.02 |    101635    |   115061   
        9  | 25:34.12 |  2:35.21 |    115062    |   126707   
       10  | 28:09.33 |  5:02.16 |    126708    |   149373   
       11  | 33:11.49 |  3:20.68 |    149374    |   164441   
       12  | 36:32.42 |  3:17.21 |    164442    |   179237   
       13  | 39:49.63 |  3:29.11 |    179238    |   194923   
       14  | 43:18.74 |  6:57.63 |    194924    |   226261   
       15  | 50:16.62 |  0:46.45 |    226262    |   229756   
       16  | 51:03.32 |  6:25.29 |    229757    |   258660   
       17  | 57:28.61 |  3:41.07 |    258661    |   275242   
       18  | 61:09.68 |  3:14.41 |    275243    |   289833   


Range status and errors

Selected range

     Filename C:\Users\Олег\Desktop\Paul McCartney\Paul McCartney - Egypt Station (Limited Edition Concertina CD).wav

     Peak level 99.8 %
     Extraction speed 4.1 X
     Range quality 100.0 %
     Test CRC 88971271
     Copy CRC 88971271
     Copy OK

No errors occurred

 
AccurateRip summary
 
Track  1  not present in database
Track  2  not present in database
Track  3  not present in database
Track  4  not present in database
Track  5  not present in database
Track  6  not present in database
Track  7  not present in database
Track  8  not present in database
Track  9  not present in database
Track 10  not present in database
Track 11  not present in database
Track 12  not present in database
Track 13  not present in database
Track 14  not present in database
Track 15  not present in database
Track 16  not present in database
Track 17  not present in database
Track 18  not present in database
 
None of the tracks are present in the AccurateRip database

End of status report

---- CUETools DB Plugin V2.1.6

[CTDB TOCID: YOpH3GgIlc_Sj_RxncbVdan_YcA-] found
Submit result: YOpH3GgIlc_Sj_RxncbVdan_YcA- has been confirmed
Track | CTDB Status
  1   | (139/139) Accurately ripped
  2   | (139/139) Accurately ripped
  3   | (139/139) Accurately ripped
  4   | (139/139) Accurately ripped
  5   | (139/139) Accurately ripped
  6   | (139/139) Accurately ripped
  7   | (139/139) Accurately ripped
  8   | (139/139) Accurately ripped
  9   | (138/139) Accurately ripped
 10   | (139/139) Accurately ripped
 11   | (139/139) Accurately ripped
 12   | (139/139) Accurately ripped
 13   | (139/139) Accurately ripped
 14   | (138/139) Accurately ripped
 15   | (138/139) Accurately ripped
 16   | (137/139) Accurately ripped
 17   | (139/139) Accurately ripped
 18   | (138/139) Accurately ripped


==== Log checksum F6C6BCA21C8A305068913714143437FC33B54FBA67E710F97CDC38E394BB0470 ====



Create a new paste based on this one


Comments: