[ create a new paste ] login | about

Link: http://codepad.org/MOrkog47    [ raw code | fork ]

Plain Text, pasted on Aug 30:
[CUETools log; Date: 8/29/2019 10:38:52 PM; Version: 2.1.5]
[CTDB TOCID: I9..EXkUOGpV0qwoFvKge7Xs6DI-] found.
Track | CTDB Status
  1   | (15/15) Accurately ripped
  2   | (15/15) Accurately ripped
  3   | (15/15) Accurately ripped
  4   | (15/15) Accurately ripped
  5   | (15/15) Accurately ripped
  6   | (15/15) Accurately ripped
  7   | (15/15) Accurately ripped
  8   | (15/15) Accurately ripped
  9   | (15/15) Accurately ripped
 10   | (15/15) Accurately ripped
 11   | (15/15) Accurately ripped
 12   | (15/15) Accurately ripped
 13   | (15/15) Accurately ripped
 14   | (15/15) Accurately ripped
 15   | (15/15) Accurately ripped
 16   | (15/15) Accurately ripped
 17   | (15/15) Accurately ripped
 18   | (15/15) Accurately ripped
 19   | (15/15) Accurately ripped
[AccurateRip ID: 002e2f11-0289bda1-3a101713] found.
Track   [  CRC   |   V2   ] Status
 01     [23a0d697|f48d3363] (0+0/7) No match
 02     [ab7dcba6|4a62dc97] (0+0/7) No match
 03     [44497902|5ac7e9ce] (0+0/7) No match
 04     [909f0654|80864132] (0+0/7) No match
 05     [c8aef79a|26ca27a5] (0+0/7) No match
 06     [5de0dc6a|153e4071] (0+0/7) No match
 07     [1f295824|da16a5de] (0+0/7) No match
 08     [b6e12136|9a93c969] (0+0/7) No match
 09     [ca459d5a|7a14aa5b] (0+0/7) No match
 10     [715a9cfd|e9287cf7] (0+0/7) No match
 11     [24ad2a27|23d5f52e] (0+0/7) No match
 12     [62f4eef4|3fa8e979] (0+0/7) No match
 13     [92e64a64|625d2cce] (0+0/7) No match
 14     [8ff9a523|23950fb8] (0+0/7) No match
 15     [5b029f57|1e704d99] (0+0/7) No match
 16     [5e3bbd61|b5d2e11e] (0+0/7) No match
 17     [f6823579|a4002e01] (0+0/6) No match
 18     [f2810510|24c6c1c1] (0+0/7) No match
 19     [a26a502b|71dd0066] (0+0/7) No match
Offsetted by 6:
 01     [e096720d] (0/7) No match (V2 was not tested)
 02     [d7a90886] (0/7) No match (V2 was not tested)
 03     [b5f0d742] (0/7) No match (V2 was not tested)
 04     [782001ee] (0/7) No match (V2 was not tested)
 05     [e6644598] (0/7) No match (V2 was not tested)
 06     [c1ebb764] (0/7) No match (V2 was not tested)
 07     [4f5a3dac] (0/7) No match (V2 was not tested)
 08     [79b0a776] (0/7) No match (V2 was not tested)
 09     [8a42f1d6] (0/7) No match (V2 was not tested)
 10     [dfb890a7] (0/7) No match (V2 was not tested)
 11     [fb6d6031] (0/7) No match (V2 was not tested)
 12     [559a75dc] (0/7) No match (V2 was not tested)
 13     [72a57aca] (0/7) No match (V2 was not tested)
 14     [84369c69] (0/7) No match (V2 was not tested)
 15     [6bf4f9b9] (0/7) No match (V2 was not tested)
 16     [60c5dcbf] (0/7) No match (V2 was not tested)
 17     [8b7c9079] (0/6) No match (V2 was not tested)
 18     [25a8a3dc] (0/7) No match (V2 was not tested)
 19     [7df2d33f] (0/7) No match (V2 was not tested)

Track Peak [ CRC32  ] [W/O NULL] [  LOG   ]
 --   99.4 [B63DE115] [20F56EF9]   CRC32   
 01   93.1 [60E0E7D4] [40DDB57D]           
 02   96.8 [67CC5BFD] [5D9555F1]           
 03   89.5 [21BE5185] [DFF90CC1]           
 04   93.6 [FBA1FD8F] [00C85C49]           
 05   87.6 [96561628] [F91FEFA3]           
 06   71.2 [4CCA5247] [1A239B7C]           
 07   99.4 [F9840920] [7735C8A2]           
 08   95.1 [76E2BDBC] [1D7D2141]           
 09   96.4 [BCF0118D] [BE0315B1]           
 10   96.6 [C77605F2] [104B17BF]           
 11   99.4 [8B956F4D] [FBDB8BA2]           
 12   79.0 [6214372E] [93A3C4D7]           
 13   85.1 [31982284] [387CF979]           
 14   87.7 [902F297F] [E3A55A3C]           
 15   91.2 [55ADE02B] [85BA34EA]           
 16   85.1 [A09B8409] [5E4282ED]           
 17   76.2 [8B9A4D09] [C5CB03B8]           
 18   96.6 [99C9A014] [5292DE3B]           
 19   85.1 [E77F9EC7] [60696022]           



Create a new paste based on this one


Comments: